Книга голодных духов / The Water Was So Clear / Gaki zoshi (Ёити Такабаяси / Yoichi Takabayashi) [1973, Япония, драма, артхаус, без диалогов, VHSRip] + Sub Rus + Original Jpn

Reply to topic
DL-List and Torrent activity [Update пиров]
Size:  1.42 GB   |    Registered:  1 month 28 days   |    Completed:  0 times

Seeder not seen: Never

 
   
 
 
 
Author Message

Мых

Post 12-Oct-2019 10:20

[Quote]

Книга голодных духов / The Water Was So Clear / Gaki zoshi / 餓鬼草紙
Страна: Япония
Жанр: драма, артхаус, без диалогов
Год выхода: 1973
Продолжительность: 01:32:42
Перевод: Субтитры русские - [url=tracker.php?rid=6473541]дед_сто_лет[/url]©
Оригинальная аудиодорожка: японский
Режиссер: [url=tracker.php?nm=Yoichi%20Takabayashi]Ёити Такабаяси / Yoichi Takabayashi[/url]
В ролях: Ютаро БАН, Юкиэ МАЦУДА, Канаэ КОБАЯСИ, Акира НИТТА
Описание: Уединенный храм стал убежищем для потерявшейся девушки. Здесь вдали от соблазнов большого мира её оберегают 33-летний монах и престарелая служанка. Но появляется юный охотник, и голодные духи завладевают сердцами людей.©
Первый полнометражный фильм Ёити Такабаяси был представлен в 1973 году в программе Каннского фестиваля. Награжден Гран-При Международного кинофестиваля в Мангейме.
> > > > >
Качество видео: VHSRip
Формат файла: AVI
Видео: 672x480 (1.40:1), 23.976 fps, XviD build 64 ~1998 kbps avg, 0.26 bit/pixel
Аудио: 48 kHz, MPEG Layer 3, 2 ch, ~192.00 kbps avg
Формат файла субтитров: softsub (SRT)
Доп. информация о субтитрах: дед_сто_лет

Все субтитры

1
00:00:02,079 --> 00:00:16,792
ТАКАБАЯСИ ЁИТИ ПРОДАКШЕН
2
00:00:20,461 --> 00:00:25,944
В сотрудничестве с ЭЙДЗО-КИОТО
3
00:00:29,147 --> 00:00:37,447
КНИГА ГОЛОДНЫХ ДУХОВ
4
00:00:40,735 --> 00:00:44,789
Продюсеры:
Ёити ТАКАБАЯСИ и Тэруо ТАКАБАЯСИ
5
00:00:45,889 --> 00:00:49,289
Сценарий - Томохико МАЦУИ
6
00:00:50,894 --> 00:00:54,194
Свет - Кидзо ИСИХАРА
7
00:00:56,180 --> 00:00:59,480
Художник - Акира НАЙТО
8
00:01:01,488 --> 00:01:04,788
Звук - Тору КУРАСИМА
9
00:01:10,201 --> 00:01:13,657
Помощник продюсера - Масанори САНАДА
10
00:01:42,420 --> 00:01:44,320
В ролях:
11
00:01:52,920 --> 00:01:56,220
Ютаро БАН
12
00:01:58,210 --> 00:02:01,510
Юкиэ МАЦУДА
13
00:02:03,565 --> 00:02:06,865
Канаэ КОБАЯСИ
14
00:02:10,680 --> 00:02:14,041
Акира НИТТА
и жители города Такасима
15
00:02:23,329 --> 00:02:27,537
Режиссер, оператор и монтажер
ЁИТИ ТАКАБАЯСИ
16
01:32:36,145 --> 01:32:42,479
КОНЕЦ

MediaInfo

GeneralComplete name : C:\Torrents\[ASIA]\Gaki.zoshi(1973)Yoichi.Takabayashi\Gaki.zoshi(1973)Yoichi.Takabayashi.aviFormat : AVIFormat/Info : Audio Video InterleaveFile size : 1.42 GiBDuration : 1h 32mnOverall bit rate : 2 200 KbpsWriting library : VirtualDub-MPEG2 build 24600/release
VideoID : 0Format : MPEG-4 VisualFormat profile : Advanced Simple@L5Format settings, BVOP : 2Format settings, QPel : NoFormat settings, GMC : No warppointsFormat settings, Matrix : Default (H.263)Codec ID : XVIDCodec ID/Hint : XviDDuration : 1h 32mnBit rate : 1 999 KbpsWidth : 672 pixelsHeight : 480 pixelsDisplay aspect ratio : 1.400Frame rate : 23.976 fpsColor space : YUVChroma subsampling : 4:2:0Bit depth : 8 bitsScan type : ProgressiveCompression mode : LossyBits/(Pixel*Frame) : 0.258Stream size : 1.29 GiB (91%)Writing library : XviD 64
AudioID : 1Format : MPEG AudioFormat version : Version 1Format profile : Layer 3Mode : Joint stereoCodec ID : 55Codec ID/Hint : MP3Duration : 1h 32mnBit rate mode : ConstantBit rate : 192 KbpsChannel(s) : 2 channelsSampling rate : 48.0 KHzCompression mode : LossyStream size : 127 MiB (9%)Alignment : Split accross interleavesInterleave, duration : 42 ms (1.00 video frame)Interleave, preload duration : 500 ms

Скриншот c названием фильма

Скриншоты



[geo-torrent.biz]_t_5789983.torrent
Torrent: Registered ·  [ 2019-10-12 10:20 ] ·  8b49127ae18c7c5d10efeee57600d1ce3d52ad0a

15 KB

Status: checked
Completed: 0 times
Size: 1.42 GB
Rating: 
(Votes: 0)
Say thanks: 0  Thanks
Похожие темы
[Profile]    [PM]
Display posts from previous:    
Reply to topic

The time now is: Today 20:44

All times are GMT + 7 Hours



You cannot post new topics in this forum
You cannot reply to topics in this forum
You cannot edit your posts in this forum
You cannot delete your posts in this forum
You cannot vote in polls in this forum
You cannot attach files in this forum
You can download files in this forum