Человек, который упал на землю / The Man Who Fell to Earth (Николас Роуг / Nicolas Roeg) [1976, Великобритания, фантастика, драма, BDRip] VO

Reply to topic
DL-List and Torrent activity [Update пиров]
Size:  1.46 GB   |    Registered:  1 month 26 days   |    Completed:  0 times

Seeder not seen: Never

 
   
 
 
 
Author Message

Генри

Post 12-Oct-2019 10:20

[Quote]

Человек, который упал на землю / The Man Who Fell to Earth
«You're only welcome if it's beneficial to us»
Страна: Великобритания
Жанр: фантастика, драма
Год выхода: 1976
Продолжительность: 02:19:14
Перевод: Одноголосый закадровый
Субтитры: нет
Режиссер: Николас Роуг / Nicolas Roeg
В ролях: Дэвид Боуи / David Bowie, Бак Хенри / Buck Henry, Кэнди Кларк / Candy Clark, Рип Торн / Rip Torn, Хилари Холлэнд / Hilary Holland, Линда Хаттон / Linda Hutton, Рик Риккардо / Rick Riccardo, Джексон Д. Кэйн / Jackson D. Kane , Берни Кэйси / Bernie Casey, Тони Машиа / Tony Mascia
Описание: Фильм об инопланетянине, который — после приводнения его космического корабля в каком-то лесном озере — остался жить среди людей, сохраняя некую свою изначальную двойственность: оболочка человеческого тела и душа пришельца.
Доп. информация: Дорожка с VO синхронизирована и наложена ale_x2008 при помощи Adobe Audition, Sony Vegas и VirtualDubMod.
За оцифрованную с VHS дорожку благодарим - alenavova


Сэмпл: http://yadi.sk/i/M2VNAgdrtNh7Gw
Качество видео: BDRip
Формат файла: AVI
Видео: XviD build 63, 720x304 (2.37:1), 23.976 fps, 1595 kbps avg, 0.30 bit/pixel
Аудио: AC3 Dolby Digital, 48000Hz 2/0 (L,R) ch (mono), 192.00 kbps avg

MediaInfo

Человек, который упал на Землю - The Man Who Fell to Earth [by ale_X2008].aviFormat : AVIFormat/Info : Audio Video InterleaveFile size : 1.46 GiBDuration : 2 h 19 minOverall bit rate : 1 501 kb/sMovie name : Человек, который упал на Землю - The Man Who Fell to Earth [by ale_X2008]Director : by ale_x2008Writing application : VirtualDubMod 1.5.10.2 (build 2540/release)Copyright : Edich2Comment :
VideoID : 0Format : MPEG-4 VisualFormat profile : Advanced Simple@L5Format settings : BVOP1 / Custom MatrixFormat settings, BVOP : 1Format settings, QPel : NoFormat settings, GMC : No warppointsFormat settings, Matrix : CustomCodec ID : XVIDCodec ID/Hint : XviDDuration : 2 h 19 minBit rate : 1 300 kb/sWidth : 720 pixelsHeight : 304 pixelsDisplay aspect ratio : 2.35:1Frame rate : 23.976 (24000/1001) FPSColor space : YUVChroma subsampling : 4:2:0Bit depth : 8 bitsScan type : ProgressiveCompression mode : LossyBits/(Pixel*Frame) : 0.248Stream size : 1.26 GiB (87%)Writing library : XviD 63
AudioID : 1Format : AC-3Format/Info : Audio Coding 3Codec ID : 2000Duration : 2 h 19 minBit rate mode : ConstantBit rate : 192 kb/sChannel(s) : 2 channelsChannel positions : Front: L RSampling rate : 48.0 kHzFrame rate : 31.250 FPS (1536 SPF)Bit depth : 16 bitsCompression mode : LossyStream size : 191 MiB (13%)Alignment : Split accross interleavesInterleave, duration : 42 ms (1.00 video frame)Interleave, preload duratio : 500 msService kind : Complete Main

Скриншоты




[geo-torrent.biz]_t_5790023.torrent
Torrent: Registered ·  [ 2019-10-12 10:20 ] ·  2fa405e39cd9b7a778f47ccd0fb66609d8e73e2f

15 KB

Status: checked
Completed: 0 times
Size: 1.46 GB
Rating: 
(Votes: 0)
Say thanks: 0  Thanks
Похожие темы
[Profile]    [PM]
Display posts from previous:    
Reply to topic

The time now is: Today 07:47

All times are GMT + 7 Hours



You cannot post new topics in this forum
You cannot reply to topics in this forum
You cannot edit your posts in this forum
You cannot delete your posts in this forum
You cannot vote in polls in this forum
You cannot attach files in this forum
You can download files in this forum