Из жизни детей / Ze života dĕtí (Ярослав Дубрава, Адольф Борн, Милош Мацурек / Jaroslav Doubrava, Adolf Born, Miloš Macourek) [1977, Чехословакия, мультфильм, TVRip]

Reply to topic
DL-List and Torrent activity [Update пиров]
Size:  103 MB   |    Registered:  1 month 27 days   |    Completed:  0 times

Seeder not seen: Never

 
   
 
 
 
Author Message

КЭП

Post 12-Oct-2019 00:54

[Quote]

Из жизни детей / Ze života dĕtí
Страна: Чехословакия
Жанр: мультфильм
Продолжительность: 00:09:40
Год выхода: 1977
Перевод: не требуется
Русские субтитры: нет
Режиссёры: Ярослав Дубрава, Адольф Борн, Милош Мацурек / Jaroslav Doubrava, Adolf Born, Miloš Macourek
Описание: Шуточный фильм рассказывает об этих неутомимых фантазёрах - детях, вынужденных жить среди этих скучных взрослых.
Качество: TVRip
Формат файла: AVI
Видео: 1344 kbps, 576х448 (1.286), 25.000 fps, MPEG-4 (Simple@L3)
Аудио: 128 kbps, 44.1 kHz, 2 channels, MPEG Audio (MP3)
Субтитры: отсутствуют

Подробные технические данные

GeneralComplete name : Ze zivota deti (1977).aviFormat : AVIFormat/Info : Audio Video InterleaveFile size : 103 MiBDuration : 9mn 40sOverall bit rate : 1 482 KbpsWriting application : VirtualDubMod 1.5.10.2 (build 2540/release)Writing library : VirtualDubMod build 2540/release
VideoID : 0Format : MPEG-4 VisualFormat profile : Advanced Simple@L5Format settings, BVOP : 2Format settings, QPel : NoFormat settings, GMC : No warppointsFormat settings, Matrix : Default (H.263)Codec ID : XVIDCodec ID/Hint : XviDDuration : 9mn 40sBit rate : 1 344 KbpsWidth : 576 pixelsHeight : 448 pixelsDisplay aspect ratio : 1.286Frame rate : 25.000 fpsColor space : YUVChroma subsampling : 4:2:0Bit depth : 8 bitsScan type : ProgressiveCompression mode : LossyBits/(Pixel*Frame) : 0.208Stream size : 93.0 MiB (91%)Writing library : XviD 73
AudioID : 1Format : MPEG AudioFormat version : Version 1Format profile : Layer 3Codec ID : 55Codec ID/Hint : MP3Duration : 9mn 40sBit rate mode : ConstantBit rate : 128 KbpsChannel(s) : 2 channelsSampling rate : 44.1 KHzCompression mode : LossyStream size : 8.86 MiB (9%)Alignment : Split accross interleavesInterleave, duration : 40 ms (1.00 video frame)Interleave, preload duration : 500 ms

Скриншоты



[geo-torrent.biz]_t_5783355.torrent
Torrent: Registered ·  [ 2019-10-12 00:54 ] ·  4d05ae5ec77cfcccf639b3dc8a9d907d34c775d2

17 KB

Status: checked
Completed: 0 times
Size: 103 MB
Rating: 
(Votes: 0)
Say thanks: 0  Thanks
Похожие темы
[Profile]    [PM]
Display posts from previous:    
Reply to topic

The time now is: Today 06:41

All times are GMT + 7 Hours



You cannot post new topics in this forum
You cannot reply to topics in this forum
You cannot edit your posts in this forum
You cannot delete your posts in this forum
You cannot vote in polls in this forum
You cannot attach files in this forum
You can download files in this forum