(Chamber Rock / Avant-Prog / Contemporary Folk) [CD] Knoedel [Die Knodel] - Still. "Kaum Etwas Endet So, Wie Es Anfängt [Anfangt]" - 2019, FLAC (tracks+.cue), lossless

Reply to topic
DL-List and Torrent activity [Update пиров]
Size:  274 MB   |    Registered:  1 month 26 days   |    Completed:  0 times

Seeder not seen: Never

 
   
 
 
 
Author Message

Пушистый

Post 10-Oct-2019 01:46

[Quote]

Knoedel [Die Knodel] / Still. "Kaum Etwas Endet So, Wie Es Anfängt [Anfangt]"
Жанр: Chamber Rock / Avant-Prog / Contemporary Folk
Носитель: CD
Страна-производитель диска (релиза): Austria
Год издания: 2019
Издатель (лейбл): Col Legno Music
Номер по каталогу: WWE 1CD 20446
Страна исполнителя (группы): Austria
Аудиокодек: FLAC (*.flac)
Тип рипа: tracks+.cue
Продолжительность: 53:17 min
Источник: собственный рип
Наличие сканов в содержимом раздачи: [600dpi]
Треклист:
1. Wörgl, Wunderbar. 4:57
2. Still. 4:25
3. Nah Am Bach. 2:50
4. Wir Brennen. 5:49
5. Ah! 6:13
6. Frisch Wie Feuer. 6:07
7. Für Hilda. 4:49
8. Gehen Sehen. 5:20
9. Unendliche Ballade. 5:04
10. Veitstanz. 3:42
11. Gasthausmusik. 3:57

Лог создания рипа

Exact Audio Copy V1.0 beta 4 from 7. December 2014
EAC extraction logfile from 9. October 2019, 13:43
Knoedel / Still. -Kaum Etwas Endet So, Wie Es Anfängt-
Used drive : ATAPI iHAS124 E Adapter: 1 ID: 0
Read mode : SecureUtilize accurate stream : YesDefeat audio cache : YesMake use of C2 pointers : No
Read offset correction : 6Overread into Lead-In and Lead-Out : NoFill up missing offset samples with silence : YesDelete leading and trailing silent blocks : NoNull samples used in CRC calculations : YesUsed interface : Native Win32 interface for Win NT & 2000Gap handling : Appended to previous track
Used output format : User Defined EncoderSelected bitrate : 768 kBit/sQuality : HighAdd ID3 tag : NoCommand line compressor : C:\Program Files (x86)\flac-1.3.2-win\win64\flac.exeAdditional command line options : -8 -V -T "ARTIST=%artist%" -T "TITLE=%title%" -T "ALBUM=%albumtitle%" -T "DATE=%year%" -T "TRACKNUMBER=%tracknr%" -T "GENRE=%genre%" -T "COMMENT=ripped by vp_sunset" %source% -o %dest%
TOC of the extracted CD
Track | Start | Length | Start sector | End sector --------------------------------------------------------- 1 | 0:00.00 | 4:55.73 | 0 | 22197 2 | 4:55.73 | 4:25.16 | 22198 | 42088 3 | 9:21.14 | 2:50.72 | 42089 | 54910 4 | 12:12.11 | 5:49.52 | 54911 | 81137 5 | 18:01.63 | 6:13.63 | 81138 | 109175 6 | 24:15.51 | 6:07.39 | 109176 | 136739 7 | 30:23.15 | 4:49.47 | 136740 | 158461 8 | 35:12.62 | 5:20.40 | 158462 | 182501 9 | 40:33.27 | 5:04.02 | 182502 | 205303 10 | 45:37.29 | 3:42.50 | 205304 | 222003 11 | 49:20.04 | 3:57.04 | 222004 | 239782
Track 1
Filename C:\_EAC\01. Wörgl, Wunderbar.wav
Pre-gap length 0:00:02.00
Peak level 97.7 % Extraction speed 1.9 X Track quality 100.0 % Test CRC 4333EE18 Copy CRC 4333EE18 Track not present in AccurateRip database Copy OK
Track 2
Filename C:\_EAC\02. Still.wav
Peak level 97.7 % Extraction speed 2.2 X Track quality 100.0 % Test CRC BBD7CB6A Copy CRC BBD7CB6A Track not present in AccurateRip database Copy OK
Track 3
Filename C:\_EAC\03. Nah Am Bach.wav
Peak level 97.7 % Extraction speed 1.5 X Track quality 99.9 % Test CRC 42C60FF7 Copy CRC 42C60FF7 Track not present in AccurateRip database Copy OK
Track 4
Filename C:\_EAC\04. Wir Brennen.wav
Peak level 97.7 % Extraction speed 2.6 X Track quality 100.0 % Test CRC 19C059F0 Copy CRC 19C059F0 Track not present in AccurateRip database Copy OK
Track 5
Filename C:\_EAC\05. Ah!.wav
Peak level 97.7 % Extraction speed 2.3 X Track quality 99.9 % Test CRC EA75F130 Copy CRC EA75F130 Track not present in AccurateRip database Copy OK
Track 6
Filename C:\_EAC\06. Frisch Wie Feuer.wav
Peak level 97.7 % Extraction speed 2.5 X Track quality 99.9 % Test CRC 00944A64 Copy CRC 00944A64 Track not present in AccurateRip database Copy OK
Track 7
Filename C:\_EAC\07. Für Hilda.wav
Peak level 78.8 % Extraction speed 3.2 X Track quality 100.0 % Test CRC EDD2ECD3 Copy CRC EDD2ECD3 Track not present in AccurateRip database Copy OK
Track 8
Filename C:\_EAC\08. Gehen Sehen.wav
Peak level 70.7 % Extraction speed 3.4 X Track quality 100.0 % Test CRC A4D6EF01 Copy CRC A4D6EF01 Track not present in AccurateRip database Copy OK
Track 9
Filename C:\_EAC\09. Unendliche Ballade.wav
Peak level 97.7 % Extraction speed 3.5 X Track quality 100.0 % Test CRC 71AB1A7E Copy CRC 71AB1A7E Track not present in AccurateRip database Copy OK
Track 10
Filename C:\_EAC\10. Veitstanz.wav
Peak level 97.7 % Extraction speed 3.5 X Track quality 100.0 % Test CRC 05A839FB Copy CRC 05A839FB Track not present in AccurateRip database Copy OK
Track 11
Filename C:\_EAC\11. Gasthausmusik.wav
Peak level 97.7 % Extraction speed 2.7 X Track quality 99.9 % Test CRC 08A71D54 Copy CRC 08A71D54 Track not present in AccurateRip database Copy OK
None of the tracks are present in the AccurateRip database
No errors occurred
End of status report
---- CUETools DB Plugin V2.1.4
[CTDB TOCID: PnqaJexu5jN7uK71s17qprTa8Is-] foundSubmit result: PnqaJexu5jN7uK71s17qprTa8Is- has been confirmedTrack | CTDB Status 1 | (2/2) Accurately ripped 2 | (2/2) Accurately ripped 3 | (2/2) Accurately ripped 4 | (2/2) Accurately ripped 5 | (2/2) Accurately ripped 6 | (2/2) Accurately ripped 7 | (2/2) Accurately ripped 8 | (2/2) Accurately ripped 9 | (2/2) Accurately ripped 10 | (2/2) Accurately ripped 11 | (2/2) Accurately ripped
==== Log checksum B0D372798FBC5FBBB33261B22F7091A04C0318646D82619D90E036AE50237F61 ====

Содержание индексной карты (.CUE)

REM GENRE "Contemporary Folk"REM DATE 2019REM DISCID 9B0C7D0BREM COMMENT "ExactAudioCopy v1.0b4"PERFORMER "Knoedel"TITLE "Still. -Kaum Etwas Endet So, Wie Es Anfängt-"FILE "01. Wörgl, Wunderbar.wav" WAVE TRACK 01 AUDIO TITLE "Wörgl, Wunderbar" PERFORMER "Knoedel" INDEX 01 00:00:00FILE "02. Still.wav" WAVE TRACK 02 AUDIO TITLE "Still" PERFORMER "Knoedel" INDEX 01 00:00:00FILE "03. Nah Am Bach.wav" WAVE TRACK 03 AUDIO TITLE "Nah Am Bach" PERFORMER "Knoedel" INDEX 01 00:00:00FILE "04. Wir Brennen.wav" WAVE TRACK 04 AUDIO TITLE "Wir Brennen" PERFORMER "Knoedel" INDEX 01 00:00:00FILE "05. Ah!.wav" WAVE TRACK 05 AUDIO TITLE "Ah!" PERFORMER "Knoedel" INDEX 01 00:00:00FILE "06. Frisch Wie Feuer.wav" WAVE TRACK 06 AUDIO TITLE "Frisch Wie Feuer" PERFORMER "Knoedel" INDEX 01 00:00:00FILE "07. Für Hilda.wav" WAVE TRACK 07 AUDIO TITLE "Für Hilda" PERFORMER "Knoedel" INDEX 01 00:00:00FILE "08. Gehen Sehen.wav" WAVE TRACK 08 AUDIO TITLE "Gehen Sehen" PERFORMER "Knoedel" INDEX 01 00:00:00FILE "09. Unendliche Ballade.wav" WAVE TRACK 09 AUDIO TITLE "Unendliche Ballade" PERFORMER "Knoedel" INDEX 01 00:00:00FILE "10. Veitstanz.wav" WAVE TRACK 10 AUDIO TITLE "Veitstanz" PERFORMER "Knoedel" INDEX 01 00:00:00FILE "11. Gasthausmusik.wav" WAVE TRACK 11 AUDIO TITLE "Gasthausmusik" PERFORMER "Knoedel" INDEX 01 00:00:00

Лог проверки качества

-----------------------
DON'T MODIFY THIS FILE
-----------------------
PERFORMER: auCDtect Task Manager, ver. 1.6.0 RC1 build 1.6.0.1Copyright (c) 2008-2010 y-soft. All rights reservedhttp://y-soft.org
ANALYZER: auCDtect: CD records authenticity detector, version 0.8.2Copyright (c) 2004 Oleg Berngardt. All rights reserved.Copyright (c) 2004 Alexander Djourik. All rights reserved.
FILE: 01. Worgl, Wunderbar.flac Size: 22683610 Hash: 80799AAF45F718DE53E36614656B0E20 Accuracy: -m0 Conclusion: CDDA 99% Signature: 3D9422C33691D33777DF37691089CBE46BE2B81AFILE: 02. Still.flac Size: 23383555 Hash: DE10C6D76B159162DDFB6BF71B545E54 Accuracy: -m0 Conclusion: CDDA 100% Signature: BC925FAB5E170993D3CF3D82A7E31B140DB06565FILE: 03. Nah Am Bach.flac Size: 15392847 Hash: 97076E4C7BF7701C77CCF3F1E777FC0F Accuracy: -m0 Conclusion: CDDA 100% Signature: 9A6DAC75C12FD459535B51BFC78D2928FB4977E2FILE: 04. Wir Brennen.flac Size: 27653972 Hash: 4DEC3BA792595D72CC51BF10CE0548CE Accuracy: -m0 Conclusion: CDDA 100% Signature: BD01234AF80638C94F74DF436EFF8D79AB3BBF97FILE: 05. Ah!.flac Size: 28259990 Hash: 236AC1BBAC0086C5EF01B4F45616FD83 Accuracy: -m0 Conclusion: CDDA 100% Signature: 0B61BCC8E60B1F3AFB656B741D1B69E7395E613EFILE: 06. Frisch Wie Feuer.flac Size: 35808766 Hash: 7F894CF8F3A2365A3397DD05716BAED2 Accuracy: -m0 Conclusion: CDDA 99% Signature: FF60BE865BD6AEF05CC3D78101D3E7793EBBC76EFILE: 07. Fur Hilda.flac Size: 19010810 Hash: 284C38966CAAF6037D1EB17A1E94764D Accuracy: -m0 Conclusion: CDDA 100% Signature: 0048B1EDB47E1C3B4DAB2CC9F9CE4346089FC1DAFILE: 08. Gehen Sehen.flac Size: 22065863 Hash: 79B5F8DD29387CACF979DABD4DB6BB71 Accuracy: -m0 Conclusion: CDDA 100% Signature: B97D0CB0C6B58467FC4D03DA6A344CF34E5E9DBAFILE: 09. Unendliche Ballade.flac Size: 19074384 Hash: C3A66CD5144C78DFEFEBE7F75D8F07FE Accuracy: -m0 Conclusion: CDDA 100% Signature: B743A593CDDF80D16A97BE1CFF319C2257FF9E5FFILE: 10. Veitstanz.flac Size: 21095961 Hash: 3D872E14FF3B9EB842B8C008124DE2DB Accuracy: -m0 Conclusion: CDDA 99% Signature: A6D793A62624CD4756E2C0C49AAE055165098CEDFILE: 11. Gasthausmusik.flac Size: 20962556 Hash: DC2514069303B74395242BE921767A5C Accuracy: -m0 Conclusion: CDDA 99% Signature: 0E6B0B32C99FC23C1D156C262DFDBA2A9E940019

DRM.log

foobar2000 1.3.8 / Dynamic Range Meter 1.1.1log date: 2019-10-09 15:40:49
--------------------------------------------------------------------------------Analyzed: Knoedel / Still. -Kaum Etwas Endet So, Wie Es Anfängt---------------------------------------------------------------------------------
DR Peak RMS Duration Track--------------------------------------------------------------------------------DR11 -0.20 dB -16.08 dB 4:56 01-Wörgl, WunderbarDR11 -0.20 dB -13.49 dB 4:25 02-StillDR11 -0.20 dB -13.87 dB 2:51 03-Nah Am BachDR12 -0.20 dB -16.54 dB 5:50 04-Wir BrennenDR11 -0.20 dB -14.79 dB 6:14 05-Ah!DR10 -0.20 dB -12.64 dB 6:08 06-Frisch Wie FeuerDR12 -2.06 dB -19.46 dB 4:50 07-Für HildaDR12 -3.00 dB -19.67 dB 5:21 08-Gehen SehenDR12 -0.20 dB -18.45 dB 5:04 09-Unendliche BalladeDR10 -0.20 dB -12.24 dB 3:43 10-VeitstanzDR11 -0.20 dB -13.92 dB 3:57 11-Gasthausmusik--------------------------------------------------------------------------------
Number of tracks: 11Official DR value: DR11
Samplerate: 44100 HzChannels: 2Bits per sample: 16Bitrate: 705 kbpsCodec: FLAC================================================================================

Об альбоме (сборнике)

All Tracks Written And Composed by Christof Dienz
Recorded by Christoph Walder, Martin Leitner
Mixed by Florian Bogner
Mastered by Martin Siewert

Состав

– Christof Dienz / bassoon, zither
– Walter Seebacher / clarinet, dulcimer
– Alexandra Dienz / contrabass
– Michael Öttl / guitar
– Margreth Köll / harp [tripelharfe]
– Andreas Lackner / trumpet, flugelhorn
– Catherine Aglibut / violin
– Charlie Fischer / percussion, drums


[geo-torrent.biz]_t_5788908.torrent
Torrent: Registered ·  [ 2019-10-10 01:46 ] ·  c4e52145e7df61f506e25035f93e004f72462bea

13 KB

Status: checked
Completed: 0 times
Size: 274 MB
Rating: 
(Votes: 0)
Say thanks: 0  Thanks
Похожие темы
[Profile]    [PM]
Display posts from previous:    
Reply to topic

The time now is: Today 21:26

All times are GMT + 7 Hours



You cannot post new topics in this forum
You cannot reply to topics in this forum
You cannot edit your posts in this forum
You cannot delete your posts in this forum
You cannot vote in polls in this forum
You cannot attach files in this forum
You can download files in this forum