Летний шторм / A Storm in Summer (Роберт Уайз / Robert Wise) [2000, США, драма, DVDRip-AVC] + Sub Rus + Original Eng

Reply to topic
DL-List and Torrent activity [Update пиров]
Size:  1.06 GB   |    Registered:  6 days   |    Completed:  0 times

Seeder not seen: Never

 
   
 
 
 
Author Message

Кейт

Post 10-Oct-2019 00:43

[Quote]

Летний шторм / A Storm in Summer
Страна: США
Жанр: драма
Год выхода: 2000
Продолжительность: 01:37:18
Перевод: Субтитры
Субтитры: русские (Mmm_15) , английские
Оригинальная аудиодорожка: английский
Режиссер: Роберт Уайз / Robert Wise
В ролях: Питер Фальк,Эндрю МакКарти,Настасья Кински,Руби Ди,Аарон Микс,Джиллиан Барбер,Лиллиэн Карлсон,Кит Гордей,Ингрид Торранс,Райдер Морс,Тай Олссон,Gregor Trpin,Элвин Сандерс,Генри О. Уотсон,Гэвин Беннет,Энтони Куао,Тейя Вайлд
Описание: История взаимоотношений пожилого еврея-владельца магазина и маленького негритянского мальчика, разворачивающая в эпоху Вьетнамской войны. Абель Шеддик переживает утрату своего сына, но все же соглашается присмотреть за девятилетним Херманом. Они совершенно разные, но между ними все же устанавливаются дружеские отношения, помогающие обоим пережить тяжелые моменты жизни…
Сэмпл: http://yadi.sk/i/XrPvUJ-ADTf9aA
Качество видео: DVDRip-AVC
Формат файла: MKV
Видео: MPEG4 Video (H264) 1396 kb/s 720x480 (4:3) @ 636x480, 29.97fps
Аудио: English 48kHz, AAC, 2 ch, 160 kb/s
Формат файла субтитров: softsub (SRT)

Пример субтитров

51
00:02:08,394 --> 00:02:10,996
И если найдешь меня
повешенным на крюке
52
00:02:10,997 --> 00:02:13,599
рядом с курами,
не устраивай облаву.
53
00:02:14,033 --> 00:02:17,503
Это будет самоубийство.
54
00:02:17,504 --> 00:02:20,974
Только проследи, чтобы не сняли
не ту пташку.
55
00:02:20,974 --> 00:02:23,576
Там на крюке будут
висеть пять птиц,
56
00:02:23,576 --> 00:02:25,311
каждой лет по 70.
57
00:02:25,745 --> 00:02:27,480
Та, что в штанах, -
это я.
58
00:02:27,480 --> 00:02:30,082
59
00:04:57,130 --> 00:05:00,166
Доброе утро, Бенджи.
60
00:05:00,166 --> 00:05:04,069
61
00:05:07,106 --> 00:05:09,708
62
00:05:13,179 --> 00:05:14,914
63
00:05:14,914 --> 00:05:17,082
Да?
64
00:05:17,517 --> 00:05:20,987
Пинту маринованной
сельди, так,
65
00:05:20,987 --> 00:05:23,155
буханку ржаного хлеба…
66
00:05:23,156 --> 00:05:24,891
Вам нарезать?
67
00:05:25,325 --> 00:05:26,626
Хорошо.
68
00:05:26,626 --> 00:05:30,096
Да, леди,
записываю.
69
00:05:30,096 --> 00:05:33,132
Нет, я не китайский официант.
70
00:05:33,132 --> 00:05:35,300
Два десятка яиц.
71
00:05:35,301 --> 00:05:37,469
Это всё?
72
00:05:37,470 --> 00:05:40,072
Нет, леди, я не осуществляю
доставку.
73
00:05:40,073 --> 00:05:43,543
Нет, я слишком беден, чтобы
иметь грузовик,

MediaInfo

GeneralUnique ID : 64750956782814967915334633635497376112 (0x30B694A61B1B81DF9C218DC59483F970)Complete name : G:\Downloads\A.Storm.in.Summer.2000.DVDRip.eng.rus.sub.mkvFormat : MatroskaFormat version : Version 4File size : 1.06 GiBDuration : 1 h 37 minOverall bit rate : 1 559 kb/sEncoded date : UTC 2019-10-09 09:03:58Writing application : mkvmerge v38.0.0 ('The Silent Type') 64-bitWriting library : libebml v1.3.9 + libmatroska v1.5.2
VideoID : 1Format : AVCFormat/Info : Advanced Video CodecFormat profile : High@L3.1Format settings : CABAC / 8 Ref FramesFormat settings, CABAC : YesFormat settings, Reference frames : 8 framesCodec ID : V_MPEG4/ISO/AVCDuration : 1 h 37 minBit rate : 1 396 kb/sWidth : 720 pixelsHeight : 480 pixelsDisplay aspect ratio : 4:3Frame rate mode : ConstantFrame rate : 29.970 (30000/1001) FPSStandard : NTSCColor space : YUVChroma subsampling : 4:2:0Bit depth : 8 bitsScan type : ProgressiveBits/(Pixel*Frame) : 0.135Stream size : 971 MiB (90%)Writing library : x264 core 120Encoding settings : cabac=1 / ref=8 / deblock=1:-4:-4 / analyse=0x3:0x133 / me=umh / subme=11 / psy=1 / psy_rd=0.90:0.20 / mixed_ref=1 / me_range=32 / chroma_me=1 / trellis=2 / 8x8dct=1 / cqm=0 / deadzone=21,11 / fast_pskip=1 / chroma_qp_offset=-3 / threads=6 / sliced_threads=0 / nr=100 / decimate=1 / interlaced=0 / bluray_compat=0 / constrained_intra=0 / bframes=6 / b_pyramid=2 / b_adapt=2 / b_bias=0 / direct=3 / weightb=1 / open_gop=0 / weightp=2 / keyint=300 / keyint_min=30 / scenecut=40 / intra_refresh=0 / rc_lookahead=60 / rc=crf / mbtree=1 / crf=20.0 / qcomp=0.60 / qpmin=3 / qpmax=69 / qpstep=4 / ip_ratio=1.40 / aq=1:0.80Language : EnglishDefault : YesForced : NoColor range : LimitedColor primaries : BT.601 NTSCTransfer characteristics : BT.709Matrix coefficients : BT.601
AudioID : 2Format : AAC LCFormat/Info : Advanced Audio Codec Low ComplexityCodec ID : A_AAC-2Duration : 1 h 37 minBit rate : 160 kb/sChannel(s) : 2 channelsChannel layout : L RSampling rate : 48.0 kHzFrame rate : 46.875 FPS (1024 SPF)Compression mode : LossyStream size : 111 MiB (10%)Language : EnglishDefault : YesForced : No
Text #1ID : 3Format : UTF-8Codec ID : S_TEXT/UTF8Codec ID/Info : UTF-8 Plain TextDuration : 1 h 33 minBit rate : 61 b/sCount of elements : 1590Stream size : 42.4 KiB (0%)Title : EnglishLanguage : EnglishDefault : NoForced : No
Text #2ID : 4Format : UTF-8Codec ID : S_TEXT/UTF8Codec ID/Info : UTF-8 Plain TextDuration : 1 h 33 minBit rate : 111 b/sCount of elements : 1552Stream size : 76.8 KiB (0%)Title : RussianLanguage : RussianDefault : YesForced : No

Скриншоты











[geo-torrent.biz]_t_5788859.torrent
Torrent: Registered ·  [ 2019-10-10 00:43 ] ·  bac8428a4bbe5866e804b152e7109ac8c1f8ab17

11 KB

Status: checked
Completed: 0 times
Size: 1.06 GB
Rating: 
(Votes: 0)
Say thanks: 0  Thanks
Похожие темы
[Profile]    [PM]
Display posts from previous:    
Reply to topic

The time now is: Today 13:45

All times are GMT + 7 Hours



You cannot post new topics in this forum
You cannot reply to topics in this forum
You cannot edit your posts in this forum
You cannot delete your posts in this forum
You cannot vote in polls in this forum
You cannot attach files in this forum
You can download files in this forum