Трагедия частного предпринимателя / Чёрный снег / Běn mìngnián / Ben ming nian (Се Фэй / Се Фей / Fei Xie) [1990, Китай, драма, VHSRip] [Советская прокатная копия] Dub (Довженко)

Reply to topic
DL-List and Torrent activity [Update пиров]
Size:  2.07 GB   |    Registered:  15 days   |    Completed:  0 times

Seeder not seen: Never

 
   
 
 
 
Author Message

Мых

Post 06-Oct-2019 19:40

[Quote]

Трагедия частного предпринимателя / Běn mìngnián / Ben ming nian [Советская прокатная копия]- Страна: Китай
Жанр: драма
Год выхода: 1990
Продолжительность: 01:26:22-Перевод: Профессиональный (дублированный) - Киностудия им. А. Довженко
Субтитры: нет-Режиссер: Се Фэй / Се Фей / Fei Xie
В ролях: Цзянь Вэнь, Чен Линь, Цай Хунсян, Лян Тянь, Лю Сяонин, Лю Фу, Мэн Цзинь, Юэ Хун...- | :-Описание: По мотивам романа Лю Хэна "Чёрный снег".
Пекин эпохи экономической реформы Дэн Сяопина. 24-летний Ли Хуэйцюань освободился из мест заключения и, решив начать новую жизнь, занялся уличной торговлей. Внутренне порядочный, но наивный и не слишком грамотный парень не учел, что здесь ему придется столкнуться с все тем же криминальным миром. Отношения с людьми, у которых он ищет душевного тепла и понимания, заходят в тупик. Единственное средство отключиться от проблем — алкоголь. Однако одинокий прохожий, бредущий нетвердой походкой по темным пекинским переулкам, рискует быть ограбленным и нарваться на бандитский нож.-Семпл: http://sendfile.su/1520245-Тип релиза: VHSRip
Формат файла: MPG
Видео: 720x576 (4:3) @ 768x576, 25.000 fps, MPEG-2 Video, ~3106 Kbps, 0.300 bits/pixel
Аудио: Русский, 48.0 KHz, AC3, 2 ch, 256 Kbps

MediaInfo

GeneralComplete name : Трагедия частного предпринимателя 1990 Dub Довженко.mpgFormat : MPEG-PSFile size : 2.07 GiBDuration : 1 h 26 minOverall bit rate mode : VariableOverall bit rate : 3 431 kb/s
VideoID : 224 (0xE0)Format : MPEG VideoFormat version : Version 2Format profile : Main@MainFormat settings : BVOPFormat settings, BVOP : YesFormat settings, Matrix : DefaultFormat settings, GOP : M=3, N=12Duration : 1 h 26 minBit rate mode : VariableBit rate : 3 106 kb/sMaximum bit rate : 9 436 kb/sWidth : 720 pixelsHeight : 576 pixelsDisplay aspect ratio : 4:3Frame rate : 25.000 FPSStandard : PALColor space : YUVChroma subsampling : 4:2:0Bit depth : 8 bitsScan type : ProgressiveCompression mode : LossyBits/(Pixel*Frame) : 0.300Time code of first frame : 00:00:00:00Time code source : Group of pictures headerGOP, Open/Closed : ClosedStream size : 1.87 GiB (91%)
AudioID : 189 (0xBD)-128 (0x80)Format : AC-3Format/Info : Audio Coding 3Commercial name : Dolby DigitalMuxing mode : DVD-VideoDuration : 1 h 26 minBit rate mode : ConstantBit rate : 256 kb/sChannel(s) : 2 channelsChannel layout : L RSampling rate : 48.0 kHzFrame rate : 31.250 FPS (1536 SPF)Compression mode : LossyStream size : 158 MiB (7%)Service kind : Complete Main


[geo-torrent.biz]_t_5787494.torrent
Torrent: Registered ·  [ 2019-10-06 19:40 ] ·  aa8287a6cbc9fd61bbb270bf0abf6cc98eb71a6e

11 KB

Status: checked
Completed: 0 times
Size: 2.07 GB
Rating: 
(Votes: 0)
Say thanks: 0  Thanks
Похожие темы
[Profile]    [PM]
Display posts from previous:    
Reply to topic

The time now is: Today 00:20

All times are GMT + 7 Hours



You cannot post new topics in this forum
You cannot reply to topics in this forum
You cannot edit your posts in this forum
You cannot delete your posts in this forum
You cannot vote in polls in this forum
You cannot attach files in this forum
You can download files in this forum