(Jazz Avant-Garde / Fusion / Jazz-Rock / Avant-Prog) [CD] Eclectic Maybe Band - Reflection In A Moebius Ring Mirror - 2019, FLAC (tracks+.cue), lossless

Reply to topic
DL-List and Torrent activity [Update пиров]
Size:  500 MB   |    Registered:  2 months 25 days   |    Completed:  1 time

Seeder not seen: 2 months 16 days

 
   
 
 
 
Author Message

Пушистый

Post 18-Sep-2019 04:53

[Quote]

Eclectic Maybe Band / Reflection In A Moebius Ring Mirror
Жанр: Jazz Avant-Garde / Fusion / Jazz-Rock / Avant-Prog
Носитель: CD
Страна-производитель диска (релиза): UK
Год издания: 2019
Издатель (лейбл): Discus Music
Номер по каталогу: 83CD
Страна исполнителя (группы): Belgium
Аудиокодек: FLAC (*.flac)
Тип рипа: tracks+.cue
Продолжительность: 74:25 min
Источник: собственный рип
Наличие сканов в содержимом раздачи: [600dpi]
Треклист:
1. Horizontal Bounce. 9:20
2. Socle De Gouache. 5:58
3. Oncoming Season Wake. 4:56
4. Liquid Tempo In A Lost Period. 4:54
5. Practised Decent Proximity. 4:26
6. Day Of The Tsunami. 6:10
7. Dérive Sous Rive Gauche. 7:12
8. Spreading An Invisible Stream. 11:18
9. Belgian Rain Drop. 2:39
10. Quoi? 3:45
11. The Perfume Of The Flying Room. 13:45

Лог создания рипа

Exact Audio Copy V1.0 beta 4 from 7. December 2014
EAC extraction logfile from 16. September 2019, 20:27
Eclectic Maybe Band / Reflection In A Moebius Ring Mirror
Used drive : ATAPI iHAS124 F Adapter: 1 ID: 0
Read mode : SecureUtilize accurate stream : YesDefeat audio cache : YesMake use of C2 pointers : No
Read offset correction : 6Overread into Lead-In and Lead-Out : NoFill up missing offset samples with silence : YesDelete leading and trailing silent blocks : NoNull samples used in CRC calculations : YesUsed interface : Native Win32 interface for Win NT & 2000Gap handling : Appended to previous track
Used output format : User Defined EncoderSelected bitrate : 896 kBit/sQuality : HighAdd ID3 tag : NoCommand line compressor : C:\Program Files\flac-1.3.2-win\win64\flac.exeAdditional command line options : -8 -V -T "ARTIST=%artist%" -T "TITLE=%title%" -T "ALBUM=%albumtitle%" -T "DATE=%year%" -T "TRACKNUMBER=%tracknr%" -T "GENRE=%genre%" -T "COMMENT=ripped by vp_sunset" %source% -o %dest%
TOC of the extracted CD
Track | Start | Length | Start sector | End sector --------------------------------------------------------- 1 | 0:00.00 | 9:21.20 | 0 | 42094 2 | 9:21.20 | 6:00.33 | 42095 | 69127 3 | 15:21.53 | 4:57.46 | 69128 | 91448 4 | 20:19.24 | 4:56.43 | 91449 | 113691 5 | 25:15.67 | 4:26.21 | 113692 | 133662 6 | 29:42.13 | 6:11.63 | 133663 | 161550 7 | 35:54.01 | 7:12.01 | 161551 | 193951 8 | 43:06.02 | 11:10.04 | 193952 | 244205 9 | 54:16.06 | 2:40.60 | 244206 | 256265 10 | 56:56.66 | 3:49.04 | 256266 | 273444 11 | 60:45.70 | 13:45.13 | 273445 | 335332
Track 1
Filename C:\_EAC\01. Horizontal Bounce.wav
Pre-gap length 0:00:02.00
Peak level 96.3 % Extraction speed 6.3 X Track quality 100.0 % Test CRC C600A3C7 Copy CRC C600A3C7 Track not present in AccurateRip database Copy OK
Track 2
Filename C:\_EAC\02. Socle De Gouache.wav
Pre-gap length 0:00:01.24
Peak level 96.3 % Extraction speed 7.1 X Track quality 100.0 % Test CRC ABF5E525 Copy CRC ABF5E525 Track not present in AccurateRip database Copy OK
Track 3
Filename C:\_EAC\03. Oncoming Season Wake.wav
Pre-gap length 0:00:02.41
Peak level 96.3 % Extraction speed 7.6 X Track quality 100.0 % Test CRC EEF6FADA Copy CRC EEF6FADA Track not present in AccurateRip database Copy OK
Track 4
Filename C:\_EAC\04. Liquid Tempo In A Lost Period.wav
Pre-gap length 0:00:01.56
Peak level 96.3 % Extraction speed 8.1 X Track quality 100.0 % Test CRC 5BF92568 Copy CRC 5BF92568 Track not present in AccurateRip database Copy OK
Track 5
Filename C:\_EAC\05. Practised Decent Proximity.wav
Pre-gap length 0:00:02.54
Peak level 96.3 % Extraction speed 8.3 X Track quality 100.0 % Test CRC 72D25EDD Copy CRC 72D25EDD Track not present in AccurateRip database Copy OK
Track 6
Filename C:\_EAC\06. Day Of The Tsunami.wav
Peak level 96.3 % Extraction speed 8.1 X Track quality 99.9 % Test CRC 4EC7479A Copy CRC 4EC7479A Track not present in AccurateRip database Copy OK
Track 7
Filename C:\_EAC\07. Dérive Sous Rive Gauche.wav
Pre-gap length 0:00:01.22
Peak level 96.3 % Extraction speed 9.8 X Track quality 100.0 % Test CRC E413B733 Copy CRC E413B733 Track not present in AccurateRip database Copy OK
Track 8
Filename C:\_EAC\08. Spreading An Invisible Stream.wav
Peak level 96.3 % Extraction speed 10.8 X Track quality 100.0 % Test CRC 412871A7 Copy CRC 412871A7 Track not present in AccurateRip database Copy OK
Track 9
Filename C:\_EAC\09. Belgian Rain Drop.wav
Peak level 96.3 % Extraction speed 9.7 X Track quality 100.0 % Test CRC 3F1FA027 Copy CRC 3F1FA027 Track not present in AccurateRip database Copy OK
Track 10
Filename C:\_EAC\10. Quoi_.wav
Pre-gap length 0:00:01.37
Peak level 96.3 % Extraction speed 8.8 X Track quality 99.9 % Test CRC 0E0636F8 Copy CRC 0E0636F8 Track not present in AccurateRip database Copy OK
Track 11
Filename C:\_EAC\11. The Perfume Of The Flying Room.wav
Pre-gap length 0:00:03.90
Peak level 96.3 % Extraction speed 12.2 X Track quality 100.0 % Test CRC 91B578A0 Copy CRC 91B578A0 Track not present in AccurateRip database Copy OK
None of the tracks are present in the AccurateRip database
No errors occurred
End of status report
---- CUETools DB Plugin V2.1.4
[CTDB TOCID: qO8GR0Ep6GaWS2pCXkYlU_D.DbQ-] disk not present in databaseSubmit result: qO8GR0Ep6GaWS2pCXkYlU_D.DbQ- has been uploaded
==== Log checksum C6C52BA32A80CAF7E87C7227BAA568CD5C16A6A95B7738CB3FB986555D2108A1 ====

Содержание индексной карты (.CUE)

REM GENRE "Jazz Avant-Garde"REM DATE 2019REM DISCID A111770BREM COMMENT "ExactAudioCopy v1.0b4"PERFORMER "Eclectic Maybe Band"TITLE "Reflection In A Moebius Ring Mirror"FILE "01. Horizontal Bounce.wav" WAVE TRACK 01 AUDIO TITLE "Horizontal Bounce" PERFORMER "Eclectic Maybe Band" INDEX 01 00:00:00 TRACK 02 AUDIO TITLE "Socle De Gouache" PERFORMER "Eclectic Maybe Band" INDEX 00 09:20:02FILE "02. Socle De Gouache.wav" WAVE INDEX 01 00:00:00 TRACK 03 AUDIO TITLE "Oncoming Season Wake" PERFORMER "Eclectic Maybe Band" INDEX 00 05:58:02FILE "03. Oncoming Season Wake.wav" WAVE INDEX 01 00:00:00 TRACK 04 AUDIO TITLE "Liquid Tempo In A Lost Period" PERFORMER "Eclectic Maybe Band" INDEX 00 04:56:04FILE "04. Liquid Tempo In A Lost Period.wav" WAVE INDEX 01 00:00:00 TRACK 05 AUDIO TITLE "Practised Decent Proximity" PERFORMER "Eclectic Maybe Band" INDEX 00 04:54:02FILE "05. Practised Decent Proximity.wav" WAVE INDEX 01 00:00:00FILE "06. Day Of The Tsunami.wav" WAVE TRACK 06 AUDIO TITLE "Day Of The Tsunami" PERFORMER "Eclectic Maybe Band" INDEX 01 00:00:00 TRACK 07 AUDIO TITLE "Dérive Sous Rive Gauche" PERFORMER "Eclectic Maybe Band" INDEX 00 06:10:46FILE "07. Dérive Sous Rive Gauche.wav" WAVE INDEX 01 00:00:00FILE "08. Spreading An Invisible Stream.wav" WAVE TRACK 08 AUDIO TITLE "Spreading An Invisible Stream" PERFORMER "Eclectic Maybe Band" INDEX 01 00:00:00FILE "09. Belgian Rain Drop.wav" WAVE TRACK 09 AUDIO TITLE "Belgian Rain Drop" PERFORMER "Eclectic Maybe Band" INDEX 01 00:00:00 TRACK 10 AUDIO TITLE "Quoi_" PERFORMER "Eclectic Maybe Band" INDEX 00 02:39:32FILE "10. Quoi_.wav" WAVE INDEX 01 00:00:00 TRACK 11 AUDIO TITLE "The Perfume Of The Flying Room" PERFORMER "Eclectic Maybe Band" INDEX 00 03:45:11FILE "11. The Perfume Of The Flying Room.wav" WAVE INDEX 01 00:00:00

Лог проверки качества

-----------------------
DON'T MODIFY THIS FILE
-----------------------
PERFORMER: auCDtect Task Manager, ver. 1.6.0 RC1 build 1.6.0.1Copyright (c) 2008-2010 y-soft. All rights reservedhttp://y-soft.org
ANALYZER: auCDtect: CD records authenticity detector, version 0.8.2Copyright (c) 2004 Oleg Berngardt. All rights reserved.Copyright (c) 2004 Alexander Djourik. All rights reserved.
FILE: 01. Horizontal Bounce.flac Size: 61695830 Hash: 089BFEB3A7739CFEBB071F08045C65BF Accuracy: -m0 Conclusion: CDDA 100% Signature: 06A8AAF2516017B8169E472C0C96AE6F644F22DEFILE: 02. Socle De Gouache.flac Size: 32326760 Hash: 5D5CD13BEC43598D1D84293E5555C911 Accuracy: -m0 Conclusion: CDDA 99% Signature: DA8A7ADCD87C9B04D19453B53C419643D1C3E8FCFILE: 03. Oncoming Season Wake.flac Size: 34923387 Hash: 42480259C5F3A67795EA72A5CF184351 Accuracy: -m0 Conclusion: CDDA 100% Signature: B9D887D43A56E767D74D7AF3CE8B3E31E94BC5C9FILE: 04. Liquid Tempo In A Lost Period.flac Size: 27573283 Hash: FC86B80954A413DA3D304A8E65D4C6B7 Accuracy: -m0 Conclusion: CDDA 99% Signature: C4ABDFB608B77B32D8F2E051AEC060EAEB82E95AFILE: 05. Practised Decent Proximity.flac Size: 27474341 Hash: 1B34B985E8E8EF2DD843FA6D01FBCB5E Accuracy: -m0 Conclusion: CDDA 100% Signature: 707BD1EBEFA3DFF0B407A6DEA4C2A28A9F0A6674FILE: 06. Day Of The Tsunami.flac Size: 38347015 Hash: 9BB116D855D63487B5C700023B1D22C9 Accuracy: -m0 Conclusion: CDDA 100% Signature: A6F2570490F45A97E6076472845294FA47005993FILE: 07. Dérive Sous Rive Gauche.flac Size: 50039716 Hash: AC78AAC3990CEDA838C422C0131B5C82 Accuracy: -m0 Conclusion: CDDA 100% Signature: E4A5E850B8CF05E7B34E0FD5D5F4EF6A2F7ED19EFILE: 08. Spreading An Invisible Stream.flac Size: 71772906 Hash: 578C53C53D561A275AD8857EAFE6A2ED Accuracy: -m0 Conclusion: CDDA 100% Signature: 2A024D9E951B32E68794CF20C66EAC4A8ED98C0FFILE: 09. Belgian Rain Drop.flac Size: 16886694 Hash: D4D0D6993C1039086ADA90737C3A82A7 Accuracy: -m0 Conclusion: CDDA 100% Signature: 687CF0F77318A04D059BC1651E2CF05B993B4DC5FILE: 10. Quoi_.flac Size: 23718197 Hash: 75271C75A8C33EF7118D8B3D6E921A6D Accuracy: -m0 Conclusion: CDDA 100% Signature: F3B2F4E56EDD72B78FF6A9737DCB1C763FCDB400FILE: 11. The Perfume Of The Flying Room.flac Size: 82408830 Hash: 0CABDEF29408E48F2F72E806F1010416 Accuracy: -m0 Conclusion: CDDA 99% Signature: F20A22F754F6C28CEF38EE1670574693D5F207FF

DRM.log

foobar2000 1.4.2 / Замер динамического диапазона (DR) 1.1.1Дата отчёта: 2019-09-16 20:33:32
--------------------------------------------------------------------------------Анализ: Eclectic Maybe Band / Reflection In A Moebius Ring Mirror--------------------------------------------------------------------------------
DR Пики RMS Продолжительность трека--------------------------------------------------------------------------------DR8 -0.32 дБ -9.25 дБ 9:21 01-Horizontal BounceDR9 -0.32 дБ -11.73 дБ 6:00 02-Socle De GouacheDR7 -0.32 дБ -9.19 дБ 4:58 03-Oncoming Season WakeDR8 -0.32 дБ -10.60 дБ 4:57 04-Liquid Tempo In A Lost PeriodDR8 -0.32 дБ -9.61 дБ 4:26 05-Practised Decent ProximityDR6 -0.32 дБ -9.50 дБ 6:12 06-Day Of The TsunamiDR7 -0.32 дБ -8.23 дБ 7:12 07-Dérive Sous Rive GaucheDR7 -0.32 дБ -8.97 дБ 11:10 08-Spreading An Invisible StreamDR6 -0.32 дБ -8.15 дБ 2:41 09-Belgian Rain DropDR7 -0.32 дБ -9.09 дБ 3:49 10-Quoi_DR7 -0.32 дБ -8.31 дБ 13:45 11-The Perfume Of The Flying Room--------------------------------------------------------------------------------
Количество треков: 11Реальные значения DR: DR7
Частота: 44100 ГцКаналов: 2Разрядность: 16Битрейт: 798 кбит/сКодек: FLAC================================================================================

Об альбоме (сборнике)

released May 10, 2019
Review:
A second volume of the Guy Segers project where the basic live band session is enhanced by an extensive post production involving contributions from a wide range of musicians. This time round several tracks in the collection are focussed around the intense and distinctive voice of Carla Diratz.

Состав

- Roland Binet / Flute, Piccolo
- Martin Archer / Sax Sopranino & Alto
- Joe Higham / Sax Soprano & Tenor, Electronics
- Dave Newhouse / Sax Alto & Tenor, Bass Clarinet
- Jean-Pierre Soarez / Trumpet
- Ariane Plumerel / Violin
- Sigrid Vandenbogaerden / Cello
- Michel Delville / Guitar
- Eric Lemaître / Guitar
- Ángel Ontalva / Guitar
- Andy Kirk / Guitar, Keyboards
- Catherine Smet / Piano, Keyboards
- Guy Segers / Bass, Programming Virtual Instruments
- Franck Balestracci / Keyboards, Drums
- Dirk Wachtelaer / Drums
- Carla Diratz / Vocals
- Cathryn Robson / Vocals


[geo-torrent.biz]_t_5779018.torrent
Torrent: Registered ·  [ 2019-09-18 04:53 ] ·  8d10ea3962ad777fa734e0537736feb6295eb4db

21 KB

Status: checked
Completed: 1 times
Size: 500 MB
Rating: 
(Votes: 0)
Say thanks: 0  Thanks
Похожие темы
[Profile]    [PM]
Display posts from previous:    
Reply to topic

The time now is: Today 07:27

All times are GMT + 7 Hours



You cannot post new topics in this forum
You cannot reply to topics in this forum
You cannot edit your posts in this forum
You cannot delete your posts in this forum
You cannot vote in polls in this forum
You cannot attach files in this forum
You can download files in this forum