Паразиты / Parasite / Gisaengchung (Пон Джун-хо / Bong Joon-ho) [2019, Корея Южная, триллер, драма, комедия, WEB-DLRip] Dub (iTunes)

Reply to topic
DL-List and Torrent activity [Update пиров]
Size:  1.46 GB   |    Registered:  2 months 27 days   |    Completed:  2 times

Seeder not seen: 17 days

 
   
 
 
 
Author Message

Мых

Post 13-Sep-2019 19:38

[Quote]

-Паразиты / Parasite / Gisaengchung-«Найди злоумышленника»- -Страна: Корея Южная
Жанр: триллер, драма, комедия
Год выхода: 2019
Продолжительность: 02:11:54-Перевод: Профессиональный (дублированный) iTunes
Субтитры: русские (форсированные)
Оригинальная аудиодорожка: нет-Режиссер: Пон Джун-хо / Bong Joon-ho-В ролях: Сон Кан-хо, Ли Сон-гюн, Чо Ё-джон, Чхве У-щик, Пак Со-дам, Чан Хе-джин, Чон Джи-со, Чон Хён-джун, Ли Джон-ын, Пак Со-джун-Описание: Обычное корейское семейство жизнь не балует. Приходится жить в сыром грязном полуподвале, воровать интернет у соседей и перебиваться случайными подработками. Однажды друг сына семейства, уезжая на стажировку за границу, предлагает тому заменить его и поработать репетитором у старшеклассницы в богатой семье Пак. Подделав диплом о высшем образовании, парень отправляется в шикарный дизайнерский особняк и производит на хозяйку дома хорошее впечатление. Тут же ему в голову приходит необычный план по трудоустройству сестры.- - -Качество видео: WEB-DLRip / WEB-DL 1080p
Формат файла: AVI-Видео: XviD, 720x304 (2.35:1), 23.976 fps, ~1381 kbps avg, 0.263 bit/pixel
Аудио: 48 kHz, AC3 Dolby Digital, 2/0 (L,R) ch, ~192 kbps avg-

MediaInfo

Complete name               : D:\Раздача\Паразиты (2019) WEB-DLRip_ivanes\Паразиты (2019) WEB-DLRip_ivanes.avi
Format                      : AVI
Format/Info                 : Audio Video Interleave
File size                   : 1.46 GiB
Duration                    : 2 h 11 min
Overall bit rate            : 1 582 kb/s
Writing application         : VirtualDubMod 1.5.10.3 (build 2550/release)
Writing library             : VirtualDubMod build 2550/release
Video
ID                          : 0
Format                      : MPEG-4 Visual
Format profile              : Advanced Simple@L5
Format settings             : BVOP1 / Custom Matrix
Format settings, BVOP       : 1
Format settings, QPel       : No
Format settings, GMC        : No warppoints
Format settings, Matrix     : Custom
Codec ID                    : XVID
Codec ID/Hint               : XviD
Duration                    : 2 h 11 min
Bit rate                    : 1 381 kb/s
Width                       : 720 pixels
Height                      : 304 pixels
Display aspect ratio        : 2.35:1
Frame rate                  : 23.976 (24000/1001) FPS
Color space                 : YUV
Chroma subsampling          : 4:2:0
Bit depth                   : 8 bits
Scan type                   : Progressive
Compression mode            : Lossy
Bits/(Pixel*Frame)          : 0.263
Stream size                 : 1.27 GiB (87%)
Writing library             : XviD 67
Audio
ID                          : 1
Format                      : AC-3
Format/Info                 : Audio Coding 3
Commercial name             : Dolby Digital
Codec ID                    : 2000
Duration                    : 2 h 11 min
Bit rate mode               : Constant
Bit rate                    : 192 kb/s
Channel(s)                  : 2 channels
Channel layout              : L R
Sampling rate               : 48.0 kHz
Frame rate                  : 31.250 FPS (1536 SPF)
Bit depth                   : 16 bits
Compression mode            : Lossy
Stream size                 : 181 MiB (12%)
Alignment                   : Split across interleaves
Interleave, duration        : 42  ms (1.00 video frame)
Interleave, preload duratio : 500  ms
Service kind                : Complete Main

Скриншоты



[geo-torrent.biz]_t_5776777.torrent
Torrent: Registered ·  [ 2019-09-13 19:38 ] ·  637cb8edba12b781180ee5a5b67a1623cf64084c

15 KB

Status: checked
Completed: 2 times
Size: 1.46 GB
Rating: 
(Votes: 0)
Say thanks: 0  Thanks
Похожие темы
[Profile]    [PM]
Display posts from previous:    
Reply to topic

The time now is: Today 12:27

All times are GMT + 7 Hours



You cannot post new topics in this forum
You cannot reply to topics in this forum
You cannot edit your posts in this forum
You cannot delete your posts in this forum
You cannot vote in polls in this forum
You cannot attach files in this forum
You can download files in this forum