Судный день / Judgment Day (Джон Терлески / John Terlesky) [1999, США, фантастика, боевик, триллер, WEB-DLRip] MVO + AVO (Сергей Визгунов) + Original Eng

Reply to topic
DL-List and Torrent activity [Update пиров]
Size:  1.46 GB   |    Registered:  2 months 27 days   |    Completed:  0 times

Seeder not seen: Never

 
   
 
 
 
Author Message

Кейт

Post 12-Sep-2019 10:26

[Quote]

Судный день / Judgment Day
Страна: США
Жанр: фантастика, боевик, триллер
Год выхода: 1999
Продолжительность: 01:29:32
Перевод 1: Профессиональный (многоголосый закадровый)
Перевод 2: Авторский (одноголосый закадровый) Сергей Визгунов
Субтитры: нет
Оригинальная аудиодорожка: английский
Режиссер: Джон Терлески / John Terlesky
В ролях: Айс-Ти, Сьюзи Эймис, Марио Ван Пиблз, Кулио, Линден Эшби, Том ’Тайни’ Листер мл., Макс Гэйл, Марк Дикинс, Джеймс Экхаус, Дэвид УэллсОписание: Огромный астероид из глубин космического пространства с бешеной скоростью движется к Земле, неся за собой небывалые разрушения. Военные и ученые в спешке ищут средство, способное защитить человечество от неминуемой смерти.
Остается один единственный выход — применить новейшую систему стратегической обороны «Тор», способную предотвратить ужасное столкновение. Но для того, чтобы привести систему в действие, военным нужен ее автор, который, как назло, похищен религиозными фанатиками ...
Качество видео: WEB-DLRip
Формат файла: AVI
Видео: 720x384 (16:9), 23.976 fps, XviD MPEG-4 1745 kbps avg
Аудио 1: AC3 Dolby Digital, 48 kHz, 2/0 (L,R) ch, ~192.00 kbps [RUS, MVO]
Аудио 2: AC3 Dolby Digital, 48 kHz, 2/0 (L,R) ch, ~192.00 kbps [RUS, AVO]
Аудио 3: AC3 Dolby Digital, 48 kHz, 2/0 (L,R) ch, ~192.00 kbps [ENG, Original]

MediaInfo

бщееПолное имя : Judgment Day 1999.aviФормат файла : AVIФормат файла/Информация : Audio Video InterleaveРазмер файла : 1,46 ГбайтПродолжительность : 1 ч. 29 м.Общий поток : 2340 Кбит/секПрограмма кодирования : VirtualDubMod 1.5.10.2 (build 2542/release)Библиотека кодирования : VirtualDubMod build 2542/release
ВидеоИдентификатор : 0Формат файла : MPEG-4 VisualПрофиль формата : Advanced Simple@L5Настройки формата : BVOP2 / Custom MatrixПараметр BVOP формата : 2Параметр QPel формата : НетПараметр GMC формата : Без точки переходаПараметр матрицы формата : ВыборочнаяИдентификатор кодека : XVIDИдентификатор кодека/Подсказка : XviDПродолжительность : 1 ч. 29 м.Битрейт : 1745 Кбит/секШирина : 720 пикселейВысота : 384 пикселяСоотношение сторон : 1,85:1Частота кадров : 23,976 (24000/1001) кадра/секЦветовое пространство : YUVСубдискретизация насыщенности : 4:2:0Битовая глубина : 8 битТип развёртки : ПрогрессивнаяМетод сжатия : С потерямиБит/(Пиксели*Кадры) : 0.263Размер потока : 1,09 Гбайт (75%)Библиотека кодирования : XviD 65
Аудио #1Идентификатор : 1Формат файла : AC-3Формат файла/Информация : Audio Coding 3Идентификатор кодека : 2000Продолжительность : 1 ч. 29 м.Вид битрейта : ПостоянныйБитрейт : 192 Кбит/секКаналы : 2 каналаРасположение каналов : Front: L RЧастота : 48,0 КГцЧастота кадров : 31,250 кадров/сек (1536 SPF)Битовая глубина : 16 битМетод сжатия : С потерямиРазмер потока : 123 Мбайт (8%)Выравнивание : Разделение по промежуткамПродолжительность промежутка : 42 мс. (1,00 видеокадр)Время предзагрузки промежутка : 500 мс.ServiceKind/String : Complete Main
Аудио #2Идентификатор : 2Формат файла : AC-3Формат файла/Информация : Audio Coding 3Идентификатор кодека : 2000Продолжительность : 1 ч. 29 м.Вид битрейта : ПостоянныйБитрейт : 192 Кбит/секКаналы : 2 каналаРасположение каналов : Front: L RЧастота : 48,0 КГцЧастота кадров : 31,250 кадров/сек (1536 SPF)Битовая глубина : 16 битМетод сжатия : С потерямиРазмер потока : 123 Мбайт (8%)Выравнивание : Разделение по промежуткамПродолжительность промежутка : 42 мс. (1,00 видеокадр)Время предзагрузки промежутка : 500 мс.ServiceKind/String : Complete Main
Аудио #3Идентификатор : 3Формат файла : AC-3Формат файла/Информация : Audio Coding 3Идентификатор кодека : 2000Продолжительность : 1 ч. 29 м.Вид битрейта : ПостоянныйБитрейт : 192 Кбит/секКаналы : 2 каналаРасположение каналов : Front: L RЧастота : 48,0 КГцЧастота кадров : 31,250 кадров/сек (1536 SPF)Битовая глубина : 16 битМетод сжатия : С потерямиРазмер потока : 123 Мбайт (8%)Выравнивание : Разделение по промежуткамПродолжительность промежутка : 42 мс. (1,00 видеокадр)Время предзагрузки промежутка : 500 мс.ServiceKind/String : Complete Main


[geo-torrent.biz]_t_5776663.torrent
Torrent: Registered ·  [ 2019-09-12 10:26 ] ·  acd3ebefa2a4a45faeb81b8fc9c055441d92196c

15 KB

Status: checked
Completed: 0 times
Size: 1.46 GB
Rating: 
(Votes: 0)
Say thanks: 0  Thanks
Похожие темы
[Profile]    [PM]
Display posts from previous:    
Reply to topic

The time now is: Today 19:14

All times are GMT + 7 Hours



You cannot post new topics in this forum
You cannot reply to topics in this forum
You cannot edit your posts in this forum
You cannot delete your posts in this forum
You cannot vote in polls in this forum
You cannot attach files in this forum
You can download files in this forum