(Drum & Bass / Dubstep / Breakbeat) Chase & Status - Discography - 2008 - 2019 (47 релизов), AAC (tracks), 256 kbps [WEB] [+Video, WEB-DL, 360p]

Reply to topic
DL-List and Torrent activity [Update пиров]
Size:  2.03 GB   |    Registered:  5 months 16 days   |    Completed:  0 times

Seeder not seen: Never

 
   
 
 
 
Author Message

Mr_Fox

Post 26-Jun-2019 22:36

[Quote]

Chase & Status
-
Жанр: Drum & Bass / Dubstep / Breakbeat | Страна: UK | Год издания: 2008 - 2019 | Издатель (лейбл): MTA Records / RAM Records / | Аудио кодек: AAC | Тип рипа: tracks | Битрейт аудио: 256 kbps | Продолжительность: 08:40:11 | Источник: http://itunes.apple.com/ru/artist/chase-status/id121546679 | Вшитые тексты: не добавлены | Наличие сканов в содержимом раздачи: нет
-
Albums

2010 - More Than a Lot (New Edition)

Продолжительность: 01:00:14
: 01.06.2010
Издатель: Ram Records, under exclusive licence to Mercury Records Limited

Треклист:
1. Can't Get Enough (3:29)
2. Music Club (3:45)
3. Against All Odds (feat. Kano) (2:43)
4. Streetlife (feat. Takura Tendayi) (4:20)
5. Smash TV (3:41)
6. Pieces (feat. Plan B) (4:51)
7. Eastern Jam (3:58)
8. Foundation Skit (0:55)
9. Take Me Away (4:28)
10. Hurt You (3:48)
11. Running (4:49)
12. Take You There (feat. McLean) (3:13)
13. Is It Worth It (4:56)
14. Saxon (5:39)
15. Nneka Egbuna - Heartbeat (Chase & Status We Just Bought a Guitar Mix) (3:58)
16. In Love (feat. Jenna G) (5:56)

17. Chase & Status Tour Video 2010

Качество: WEB-DL
Продолжительность: 00:04:03
Формат файла: MPEG-4 (контейнер m4v)
Видео: H.264, 640 x 352 px (16:9), 29,970 fps, ~1577 kbps, без анаморфа
Аудио: Английский (AAC Stereo, 256 Кбит/сек, 44,1 КГц)

Media Info

General
Complete name                            : C:\Users\gangs\Desktop\Chase & Status - Discography\Albums\2010 - More Than a Lot (New Edition)\17 Chase & Status Tour Video 2010.m4v
Format                                   : MPEG-4
Codec ID                                 : M4V  (M4V /mp42/isom)
File size                                : 54.1 MiB
Duration                                 : 4 min 3 s
Overall bit rate                         : 1 863 kb/s
Movie name                               : Chase & Status Tour Video 2010
Album                                    : More Than a Lot (New Edition)
Album/Performer                          : Chase & Status
Track name/Position                      : 17
Performer                                : Chase & Status
Genre                                    : Dance
ContentType                              : Music Video
Description                              : Originally from OnlyiPlus.net, visit us today!
Recorded date                            : UTC 2003-04-28 07:00:00
Encoded date                             : UTC 2010-06-04 12:32:07
Tagged date                              : UTC 2010-06-04 12:37:13
Writing library                          : Apple QuickTime
Copyright                                : ℗ 2010 Mercury Records Limited
Service name                             : iTunes
Cover                                    : Yes
Rating                                   : None
AppleStoreCountry                        : United Kingdom
AppleStoreAccountType                    : iTunes
PurchaseDate                             : 2011-08-16 11:56:40
Vendor                                   : Universal:isrc:GBUV71000604
Flavour                                  : 6:640x480LC-256
Video
ID                                       : 1
Format                                   : AVC
Format/Info                              : Advanced Video Codec
Format profile                           : Baseline@L3
Format settings, CABAC                   : No
Format settings, ReFrames                : 1 frame
Codec ID                                 : avc1
Codec ID/Info                            : Advanced Video Coding
Duration                                 : 4 min 3 s
Bit rate                                 : 1 577 kb/s
Width                                    : 640 pixels
Height                                   : 352 pixels
Display aspect ratio                     : 16:9
Frame rate mode                          : Constant
Frame rate                               : 29.970 (29970/1000) FPS
Color space                              : YUV
Chroma subsampling                       : 4:2:0
Bit depth                                : 8 bits
Scan type                                : Progressive
Bits/(Pixel*Frame)                       : 0.234
Stream size                              : 45.8 MiB (85%)
Language                                 : English
Encoded date                             : UTC 2010-06-04 12:37:09
Tagged date                              : UTC 2010-06-04 12:37:13
Color range                              : Limited
Color primaries                          : BT.601 NTSC
Transfer characteristics                 : BT.709
Matrix coefficients                      : BT.601
Audio
ID                                       : 2
Format                                   : AAC
Format/Info                              : Advanced Audio Codec
Format profile                           : LC
Codec ID                                 : 40
Duration                                 : 4 min 3 s
Source duration                          : 4 min 3 s
Bit rate mode                            : Constant
Bit rate                                 : 256 kb/s
Channel(s)                               : 2 channels
Channel positions                        : Front: L R
Sampling rate                            : 44.1 kHz
Frame rate                               : 43.066 FPS (1024 spf)
Compression mode                         : Lossy
Stream size                              : 7.14 MiB (13%)
Source stream size                       : 7.14 MiB (13%)
Language                                 : English
Encoded date                             : UTC 2010-06-04 12:37:09
Tagged date                              : UTC 2010-06-04 12:37:13
Other
ID                                       : 3
Type                                     : Time code
Format                                   : QuickTime TC
Duration                                 : 4 min 3 s
Time code of first frame                 : 00:00:00:00
Time code, striped                       : Yes
Language                                 : English
Encoded date                             : UTC 2010-06-04 12:37:13
Tagged date                              : UTC 2010-06-04 12:37:13

2011 - No More Idols (Deluxe Version)

Продолжительность: 01:09:50
: 31.01.2011
Издатель: Chase & Status under exclusive licence to Mercury Records Limited

Треклист:
1. No Problem (feat. Takura Tendayi) (4:11)
2. Fire In Your Eyes (feat. Maverick Sabre) (4:15)
3. Let You Go (feat. Mali) (3:55)
4. Blind Faith (feat. Liam Bailey) (3:54)
5. Fool Yourself (feat. Plan B, Rage) (4:34)
6. Hypest Hype (feat. Tempa T) (3:29)
7. Hitz (feat. Tinie Tempah) (3:08)
8. Heavy (feat. Dizzee Rascal) (3:34)
9. Brixton Briefcase (feat. CeeLo Green) (3:59)
10. Hocus Pocus (4:00)
11. Flashing Lights (feat. Sub Focus & Takura) (4:10)
12. Embrace (feat. White Lies) (4:59)
13. Time (feat. Delilah) (4:20)
14. Midnight Caller (feat. Clare Maguire) (3:45)
15. End Credits (feat. Plan B) (3:21)
16. No More Idols (Mini Mix) (10:16)

2011 - No More Idols (Platinum Edition)

Продолжительность: 02:22:30
: 31.01.2011
Издатель: Chase & Status under exclusive licence to Mercury Records Limited

Треклист:
1. No Problem (feat. Takura Tendayi) (4:11)
2. Fire In Your Eyes (feat. Maverick Sabre) (4:15)
3. Let You Go (feat. Mali) (3:55)
4. Blind Faith (feat. Liam Bailey) (3:54)
5. Fool Yourself (feat. Plan B, Rage) (4:34)
6. Hypest Hype (feat. Tempa T) (3:29)
7. Hitz (feat. Tinie Tempah) (3:08)
8. Heavy (feat. Dizzee Rascal) (3:34)
9. Brixton Briefcase (feat. CeeLo Green) (3:59)
10. Hocus Pocus (4:00)
11. Flashing Lights (feat. Sub Focus & Takura) (4:10)
12. Embrace (feat. White Lies) (4:59)
13. Time (feat. Delilah) (4:20)
14. Midnight Caller (feat. Clare Maguire) (3:45)
15. End Credits (feat. Plan B) (3:21)-1. Time (Live Lounge Version) [feat. Delilah] (4:48)
2. Rope (Live Lounge Version) [feat. Delilah] (4:28)
3. End Credits (VIP Mix) (4:54)
4. Let You Go (Nero Remix) [feat. Mali] (5:16)
5. Let You Go (Brookes Brothers Remix) [feat. Mali] (4:47)
6. Let You Go (Feed Me Remix) [feat. Mali] (5:01)
7. Let You Go (Chase & Status VIP Mix) [feat. Mali] (3:32)
8. Blind Faith (MJ Cole Remix) [feat. Liam Bailey] (6:10)
9. Blind Faith (Loadstar Remix) [feat. Liam Bailey] (4:13)
10. Blind Faith (Trolley Snatcha Remix) [feat. Liam Bailey] (5:08)
11. Time (C&S Champagne Bubbler Mix) [feat. Delilah] (4:36)
12. Time (Wilkinson Remix) [feat. Delilah] (4:52)
13. Time (Kamuki House Remix) [feat. Delilah] (4:21)
14. Time (Kev Willow Remix) [feat. Delilah] (4:14)
15. Hitz (Wretch 32 Remix) [feat. Tinie Tempah] (3:30)
16. Hitz (16Bit Remix) [feat. Tinie Tempah] (4:13)
17. Hitz (Delta Heavy Remix) [feat. Tinie Tempah] (4:36)
18. Hitz (Dillon Francis Remix) [feat. Tinie Tempah] (4:17)

2012 - Live At Brixton Academy

Продолжительность: 01:12:48
: 20.04.2012
Издатель: Chase & Status under exclusive licence to Mercury Records Limited

Треклист:
1. No Problem (4:43)
2. Eastern Jam (4:38)
3. Fire In Your Eyes (feat. Maverick Sabre) (4:25)
4. Hypest Hype (feat. Tempa T) (4:03)
5. End Credits (feat. Plan B) (3:30)
6. Flashing Lights (feat. Sub Focus & Takura) (4:18)
7. Hocus Pocus (3:53)
8. Brixton Briefcase (feat. Cee Lo Green) (4:08)
9. Smash to Pieces (feat. Plan B) (7:56)
10. Let You Go (feat. Mali) (4:03)
11. Midnight Caller (feat. Clare Maguire) (4:05)
12. Nneka Egbuna - Heartbeat (feat. Delilah) [C&S Mix] (4:08)
13. Time (feat. Delilah) (4:53)
14. Blind Faith (feat. Liam Bailey) (5:34)
15. Hitz (feat. Tinie Tempah) (3:28)
16. Fool Yourself (5:10)

2013 - Brand New Machine (Deluxe Version)

Продолжительность: 01:10:46
: 07.10.2013
Издатель: Chase & Status, under exclusive licence to Mercury Records Limited

Треклист:
1. Gun Metal Grey (3:02)
2. International (4:12)
3. Count On Me (feat. Moko) (3:33)
4. Blk & Blu (feat. Ed Thomas) (5:20)
5. Pressure (feat. Major Lazer) (4:38)
6. Machine Gun (feat. Pusha T) (3:15)
7. Gangsta Boogie (feat. Knytro) (3:10)
8. Heaven Knows (feat. Elli Ingram) (3:47)
9. Lost & Not Found (feat. Louis M^ttrs) (3:58)
10. Like That (feat. Moko) (3:58)
11. Deeper Devotion (4:36)
12. Breathing (feat. Bo Saris) (4:29)
13. What Is Right (feat. Nile Rodgers & Abigail Wyles) (3:58)
14. Alive (feat. Jacob Banks) (3:26)
15. International (Skrillex Remix) (3:59)
16. Gangsta Boogie VIP (feat. Knytro) (4:18)
17. Wickedest Man (feat. Riko) (2:25)
18. Count On Me (feat. Moko) [Andy C Remix] (4:18)

19. Chase & Status Live

Качество: WEB-DL
Продолжительность: 00:02:34
Формат файла: MPEG-4 (контейнер m4v)
Видео: H.264, 640 x 268 px (16:9), 25,000 fps, ~1506 kbps, без анаморфа
Аудио: Английский (AAC Stereo, 256 Кбит/сек, 44,1 КГц)

Media Info

General
Complete name                            : C:\Users\gangs\Desktop\Chase & Status - Discography\Albums\2013 - Brand New Machine (Deluxe Version)\19 Chase & Status.m4v
Format                                   : MPEG-4
Codec ID                                 : M4V  (M4V /mp42/isom)
File size                                : 33.4 MiB
Duration                                 : 2 min 34 s
Overall bit rate                         : 1 816 kb/s
Movie name                               : Chase & Status
Album                                    : Brand New Machine (Deluxe Version)
Album/Performer                          : Chase & Status
Track name/Position                      : 19
Performer                                : Chase & Status
Genre                                    : Electronic
ContentType                              : Music Video
Recorded date                            : UTC 2013-10-07 07:00:00
Encoded date                             : UTC 2013-09-12 12:50:18
Tagged date                              : UTC 2013-09-12 12:50:18
Copyright                                : ℗ 2013 Chase & Status, under exclusive licence to Mercury Records Limited
Cover                                    : Yes
Comment                                  : (Live)
Rating                                   : None
AppleStoreAccount                        : nath-avfc@hotmail.co.uk
AppleStoreCatalogID                      : 705169864
AlbumTitleID                             : 667145466
PlayListID                               : 705169306
GenreID                                  : 1607
AppleStoreCountry                        : United Kingdom
PurchaseDate                             : 2013-10-06 23:04:20
Title/Sort                               : Chase & Status
Vendor                                   : Universal:vendor_id:00602537565672_00602537565672_GBUV71301390_01_019
Flavour                                  : 6:640x480LC-256
Video
ID                                       : 1
Format                                   : AVC
Format/Info                              : Advanced Video Codec
Format profile                           : Baseline@L2.1
Format settings, CABAC                   : No
Format settings, ReFrames                : 1 frame
Codec ID                                 : avc1
Codec ID/Info                            : Advanced Video Coding
Duration                                 : 2 min 34 s
Bit rate                                 : 1 506 kb/s
Width                                    : 640 pixels
Height                                   : 268 pixels
Display aspect ratio                     : 2.40:1
Frame rate mode                          : Constant
Frame rate                               : 25.000 FPS
Color space                              : YUV
Chroma subsampling                       : 4:2:0
Bit depth                                : 8 bits
Scan type                                : Progressive
Bits/(Pixel*Frame)                       : 0.351
Stream size                              : 27.7 MiB (83%)
Language                                 : English
Encoded date                             : UTC 2013-09-12 12:50:18
Tagged date                              : UTC 2013-09-12 12:50:18
Color range                              : Limited
Color primaries                          : BT.601 NTSC
Transfer characteristics                 : BT.709
Matrix coefficients                      : BT.601
Audio
ID                                       : 2
Format                                   : AAC
Format/Info                              : Advanced Audio Codec
Format profile                           : LC
Codec ID                                 : 40
Duration                                 : 2 min 34 s
Source duration                          : 2 min 34 s
Bit rate mode                            : Constant
Bit rate                                 : 256 kb/s
Channel(s)                               : 2 channels
Channel positions                        : Front: L R
Sampling rate                            : 44.1 kHz
Frame rate                               : 43.066 FPS (1024 spf)
Compression mode                         : Lossy
Stream size                              : 4.57 MiB (14%)
Source stream size                       : 4.57 MiB (14%)
Language                                 : English
Encoded date                             : UTC 2013-09-12 12:50:18
Tagged date                              : UTC 2013-09-12 12:50:18

2017 - Tribe (Mastered for iTunes)

Продолжительность: 01:08:23
: 18.08.2017
Издатель: ℗ 2017 Chase & Status, under exclusive licence to Mercury Records Limited

Треклист:
1. Big Man Skank (feat. Mr. Vegas) (4:20)
2. Dubplate Original (feat. Kano) (3:46)
3. Love Me More (feat. Emeli Sandé) (4:01)
4. Step Away (feat. MC Singing Fats) (4:08)
5. Reload (feat. Craig David) (3:15)
6. All Goes Wrong (feat. Tom Grennan) (3:25)
7. Tribes (3:22)
8. NRG (feat. Novelist) (3:16)
9. Real No More (feat. Shy FX & Kiko Bun) (3:39)
10. Don't Stop (feat. Bugzy Malone) (3:47)
11. Tribute (5:47)
12. Crawling (4:02)
13. Know About We (feat. Deepee, Littlez, Knine, Sleeks, Inch & Swift) (5:14)
14. Nervous (feat. Rage) (4:41)
15. This Moment (3:34)
16. Control (feat. Slaves) (4:11)
17. Know Your Name (feat. Seinabo Sey) (3:56)

2019 - RTRN II JUNGLE (Mastered for iTunes)

Продолжительность: 00:46:24
: 31.05.2019
Издатель: A Virgin EMI Records release; ℗ 2019 Chase & Status, under exclusive licence to Mercury Records Limited

Треклист:
1. Shut Up (feat. Suku) (4:02)
2. Heater (feat. General Levy) (3:15)
3. Original Business (4:13)
4. Murder Music (feat. Kabaka Pyramid) (3:34)
5. Program (feat. Irah) (4:12)
6. Cool n Crisp (feat. Natty Campbell) (4:07)
7. Weed & Rum (feat. Masicka) (3:22)
8. Burning (feat. Cocoa Tea) (4:00)
9. Retreat2018 (feat. Cutty Ranks) (4:36)
10. Delete (feat. Burro Banton) (3:01)
11. Bubble (feat. New Kidz) (3:44)
12. Disaster (4:17)

-
EP's

2003 - Wise Up - EP

Продолжительность: 00:12:15
: 01.01.2003
Издатель: ℗ 2003 Bingo Beats

Треклист:
1. Wise Up (6:01)
2. Tricky (6:14)

2005 - Love's Theme - EP

Продолжительность: 00:13:23
: 01.04.2005
Издатель: ℗ 2005 Bingo Beats

Треклист:
1. Love's Theme (6:57)
2. Wise Up (Remix) (6:25)

2010 - Let You Go (feat. Mali) - EP

Продолжительность: 00:22:34
: 24.08.2010
Издатель: Chase & Status under exclusive licence to Mercury Records Limited

Треклист:
1. Let You Go (3:57)
2. Let You Go (Nero Remix) (5:16)
3. Let You Go (Brookes Brothers Remix) (4:48)
4. Let You Go (Feed Me Remix) (5:02)
5. Let You Go (Chase & Status VIP Mix) (3:33)

2011 - iTunes Festival: London 2011 – EP

Продолжительность: 00:23:49
: 01.01.2011
Издатель: Chase & Status under exclusive licence to Mercury Records Limited

Треклист:
1. Blind Faith (Live) [feat. Liam Bailey] (4:22)
2. Flashing Lights (Live) [feat. Sub Focus & Takura] (4:17)
3. Fool Yourself (Live) [feat. Liam Bailey, Plan B. & Rage] (5:15)
4. No Problem (Live) (5:07)
5. Time (Live) [feat. Delilah] (4:49)

2011 - Blind Faith (feat. Liam Bailey) - EP

Продолжительность: 00:19:22
: 21.01.2011
Издатель: Chase & Status under exclusive licence to Mercury Records Limited

Треклист:
1. Blind Faith (3:54)
2. Blind Faith (MJ Cole Remix) (6:11)
3. Blind Faith (Loadstar Remix) (4:13)
4. Blind Faith (Trolley Snatcha Remix) (5:05)

5. Blind Faith

Качество: WEB-DL
Продолжительность: 00:09:21
Формат файла: MPEG-4 (контейнер m4v)
Видео: H.264, 640 x 480 px (4:3), 25.000 fps, ~1517 kbps, без анаморфа
Аудио: Английский (AAC Stereo, 256 Кбит/сек, 44,1 КГц)

Media Info

General
Complete name                            : C:\Users\gangs\Desktop\Chase & Status - Discography\EP\2011 - Blind Faith (feat. Liam Bailey)\05 Blind Faith.m4v
Format                                   : MPEG-4
Codec ID                                 : M4V  (M4V /mp42/isom)
File size                                : 119 MiB
Duration                                 : 9 min 21 s
Overall bit rate                         : 1 782 kb/s
Movie name                               : Blind Faith
Album                                    : Blind Faith (feat. Liam Bailey)
Album/Sorted by                          : Blind Faith (feat. Liam Bailey)
Album/Performer                          : Chase & Status
Part/Position                            : 1
Part/Total                               : 1
Track name/Position                      : 5
Track name/Total                         : 5
Performer                                : Liam Bailey & Chase & Status
Performer/Sorted by                      : Liam Bailey & Chase & Status
Genre                                    : Alternative
ContentType                              : Music Video
Recorded date                            : UTC 2011-01-21 08:00:00
Encoded date                             : UTC 2010-12-09 17:02:32
Tagged date                              : UTC 2010-12-09 17:19:08
Writing library                          : Apple QuickTime
Cover                                    : Yes
Rating                                   : Explicit
AppleStoreCatalogID                      : 409138833
PlayListID                               : 409138812
PurchaseDate                             : 2012-12-27 12:57:49
Title/Sort                               : Blind Faith (Director's Cut)
Video
ID                                       : 1
Format                                   : AVC
Format/Info                              : Advanced Video Codec
Format profile                           : Baseline@L3
Format settings, CABAC                   : No
Format settings, ReFrames                : 1 frame
Codec ID                                 : avc1
Codec ID/Info                            : Advanced Video Coding
Duration                                 : 9 min 21 s
Bit rate                                 : 1 517 kb/s
Width                                    : 640 pixels
Height                                   : 480 pixels
Display aspect ratio                     : 4:3
Frame rate mode                          : Constant
Frame rate                               : 25.000 FPS
Color space                              : YUV
Chroma subsampling                       : 4:2:0
Bit depth                                : 8 bits
Scan type                                : Progressive
Bits/(Pixel*Frame)                       : 0.198
Stream size                              : 102 MiB (85%)
Language                                 : English
Encoded date                             : UTC 2010-12-09 17:18:57
Tagged date                              : UTC 2010-12-09 17:19:08
Color range                              : Limited
Color primaries                          : BT.601 NTSC
Transfer characteristics                 : BT.709
Matrix coefficients                      : BT.601
Audio
ID                                       : 2
Format                                   : AAC
Format/Info                              : Advanced Audio Codec
Format profile                           : LC
Codec ID                                 : 40
Duration                                 : 9 min 21 s
Source duration                          : 9 min 21 s
Bit rate mode                            : Constant
Bit rate                                 : 256 kb/s
Channel(s)                               : 2 channels
Channel positions                        : Front: L R
Sampling rate                            : 44.1 kHz
Frame rate                               : 43.066 FPS (1024 spf)
Compression mode                         : Lossy
Stream size                              : 16.5 MiB (14%)
Source stream size                       : 16.5 MiB (14%)
Language                                 : English
Encoded date                             : UTC 2010-12-09 17:18:57
Tagged date                              : UTC 2010-12-09 17:19:08
Other
ID                                       : 3
Type                                     : Time code
Format                                   : QuickTime TC
Duration                                 : 9 min 21 s
Time code of first frame                 : 00:00:00:00
Time code, striped                       : Yes
Language                                 : English
Encoded date                             : UTC 2010-12-09 17:19:08
Tagged date                              : UTC 2010-12-09 17:19:08

2011 - Flashing Lights (feat. Takura) - EP

Продолжительность: 00:16:53
: 18.11.2011
Издатель: Chase & Status under exclusive licence to Mercury Records Limited

Треклист:
1. Flashing Lights (feat. Takura) (Radio Edit) (3:07)
2. Flashing Lights (feat. Takura) (Original Mix) (5:01)
3. Brixton Briefcase VIP [feat. D Double E] (4:23)
4. Brixton Briefcase VIP (Dub Mix) [feat. D Double E] (4:23)

2011 - Hitz (feat. Tinie Tempah) - EP

Продолжительность: 00:16:37
: 15.07.2011
Издатель: Chase & Status under exclusive licence to Mercury Records Limited

Треклист:
1. Hitz (feat. Tinie Tempah) [Wretch 32 Remix] (3:31)
2. Hitz (feat. Tinie Tempah) [16Bit Remix] (4:14)
3. Hitz (feat. Tinie Tempah) [Delta Heavy Remix] (4:36)
4. Hitz (feat. Tinie Tempah) [Dillon Francis Remix] (4:18)

2011 - Time (feat. Delilah) - EP

Продолжительность: 00:21:41
: 29.04.2011
Издатель: Chase & Status under exclusive licence to Mercury Records Limited

Треклист:
1. Time (Radio Edit) (3:39)
2. Time (C&S Champagne Bubbler Mix) (4:36)
3. Time (Wilkinson Remix) (4:52)
4. Time (Kamuki House Remix) (4:21)
5. Time (Kev Willow Remix) (4:14)

2012 - Flashing Lights (Remixes) [feat. Takura] - EP

Продолжительность: 00:19:53
: 15.05.2012
Издатель: Chase & Status under exclusive licence to Mercury Records Limited

Треклист:
1. Flashing Lights (feat. Takura) (4:11)
2. Flashing Lights (feat. Sub Focus & Takura) [Mac Miller Remix] (2:54)
3. Flashing Lights (feat. Sub Focus & Takura) [KillSonik Remix] (4:42)
4. Flashing Lights (feat. Takura) [S.P.Y. Remix] (5:01)
5. Flashing Lights (feat. Takura) [Radio Edit] (3:07)

2013 - Alive (feat. Jacob Banks) - EP

Продолжительность: 00:19:36
: 15.12.2013
Издатель: Chase & Status under exclusive licence to Mercury Records Limited

Треклист:
1. Alive (feat. Jacob Banks) [Radio Edit] (3:25)
2. Alive (feat. Jacob Banks) [Todd Edwards Remix] (3:38)
3. Alive (feat. Jacob Banks) [Mefjus Remix] (5:41)
4. Alive (feat. Jacob Banks) [TCTS Remix] (6:54)

2013 - Count On Me (Remixes) [feat. Moko] - EP

Продолжительность: 00:17:49
: 29.09.2013
Издатель: Chase & Status under exclusive licence to Mercury Records Limited

Треклист:
1. Count On Me (feat. Moko) [Steve Angello Remix] (3:25)
2. Count On Me (feat. Moko) [Andy C Remix] (3:38)
3. Count On Me (feat. Moko) [Nathan C Remix] (5:41)
4. Lost & Not Found (feat. Louis M^ttrs) [Acoustic] (6:54)

2013 - Lost & Not Found (feat. Louis M^ttrs) [Remixes] - EP

Продолжительность: 00:18:19
: 26.06.2013
Издатель: Chase & Status under exclusive licence to Mercury Records Limited

Треклист:
1. Lost & Not Found (feat. Louis M^ttrs) (3:25)
2. Lost & Not Found (feat. Louis M^ttrs) [Dream Mclean Remix] (3:38)
3. Lost & Not Found (feat. Louis M^ttrs) [Kove Remix] (5:41)
4. Lost & Not Found (feat. Louis M^ttrs) [Josh Butler Remix] (6:54)

2015 - London Bars - EP

Продолжительность: 00:13:12
: 04.12.2015
Издатель: Chase & Status, under exclusive licence to Mercury Records Limited

Треклист:
1. Funny (feat. Frisco) (2:59)
2. More Ratatatin (feat. Giggs) (3:20)
3. Wha Gwarn? (feat. Bonkaz) (3:35)
4. Bigger Man Sound (feat. Novelist) (3:18)

-
Singles

2005 - Duppy Man - Single

Продолжительность: 00:09:34
: 17.10.2005
Издатель: ℗ 2014 Breakbeat Kaos

Треклист:
1. Duppy Man (feat. Capleton) (5:55)
2. Top Shotta (feat. Roll Deep) (3:39)

2008 - Call to Prayer / Stand Off - Single

Продолжительность: 00:12:55
: 26.08.2008
Издатель: ℗ 2008 Barcode Recordings

Треклист:
1. Call to Prayer (6:32)
2. Stand Off (6:23)

2008 - Its Us Against the World - Single

: 09.09.2008
Издатель: Barcode Recordings

Треклист:
1. Chase & Status - Wizard Killa (6:49)
2. Ewun - Guntalk (7:13)

2010 - Tek Your Time (feat. Chase and Status) - Single

: 15.03.2010
Издатель: ℗ 2010 AV Records

Треклист:
1. Tek Your Time (feat. Chase and Status) (3:14)

2011 - Hitz (feat. Tinie Tempah) - Single

: 15.07.2011
Издатель: Chase & Status under exclusive licence to Mercury Records Limited

Треклист:
1. Hitz (Single Version) [feat. Tinie Tempah] (3:11)

2012 - Big Man (feat. Liam Bailey) - Single

: 16.10.2012
Издатель: Chase & Status under exclusive licence to Mercury Records Limited

Треклист:
1. Big Man (feat. Liam Bailey) (3:37)

2012 - End Credits - Single

: 03.04.2012
Издатель: Mercury Records Limited

Треклист:
1. End Credits (feat. Plan B) (3:21)
2. End Credits (VIP Mix) (4:54)

2013 - Count On Me (feat. Moko) - Single

: 29.09.2013
Издатель: Chase & Status, under exclusive licence to Mercury Records Limited

Треклист:
1. Count On Me (feat. Moko) (3:33)

2014 - Blk & Blu (Remixes) [feat. Ed Thomas] - Single

: 17.03.2014
Издатель: Chase & Status, under exclusive licence to Mercury Records Limited

Треклист:
1. Blk & Blu (feat. Ed Thomas) [Zed Bias Remix] (5:58)
2. Blk & Blu (feat. Ed Thomas) [Calibre Remix] (6:06)
3. Blk & Blu (feat. Ed Thomas) [Preditah Remix] (5:17)

2015 - Funny (feat. Frisco) - Single

: 06.11.2015
Издатель: MTA Records

Треклист:
1. Funny (feat. Frisco) (3:00)

2015 - More Ratatatin (feat. Giggs) [London Bars, Vol. II] - Single

: 13.11.2015
Издатель: MTA Records

Треклист:
1. More Ratatatin (feat. Giggs) (3:20)

2015 - Wha Gwarn? (London Bars, Vol. III) [feat. Bonkaz] - Single

: 20.11.2015
Издатель: MTA Records

Треклист:
1. Wha Gwarn? (feat. Bonkaz) (3:35)

2015 - Bigger Man Sound (London Bars, Vol. IV) [feat. Novelist] - Single

: 27.11.2015
Издатель: MTA Records

Треклист:
1. Bigger Man Sound (feat. Novelist) (3:18)

2016 - Control (feat. Slaves) - Single

: 24.02.2016
Издатель: Chase & Status, under exclusive licence to Mercury Records Limited

Треклист:
1. Control (feat. Slaves) (4:11)

2016 - NRG (feat. Novelist) - Single

: 01.04.2016
Издатель: Chase & Status, under exclusive licence to Mercury Records Limited

Треклист:
1. NRG (feat. Novelist) (3:16)

2016 - Spoken Word (feat. George the Poet) [1991 Remix] - Single

: 12.06.2016
Издатель: Chase & Status, under exclusive licence to Mercury Records Limited

Треклист:
1. Spoken Word (feat. George the Poet) [1991 Remix] (4:10)

2016 - Spoken Word (feat. George the Poet) - Single

: 17.06.2016
Издатель: Chase & Status, under exclusive licence to Mercury Records Limited

Треклист:
1. Spoken Word (feat. George the Poet) (3:24)

2016 - Spoken Word (feat. George the Poet & Ghetts) [Rude Kid Remix] - Single

: 01.07.2016
Издатель: Chase & Status, under exclusive licence to Mercury Records Limited

Треклист:
1. Spoken Word (feat. George the Poet & Ghetts) [Rude Kid Remix] (3:12)

2016 - All Goes Wrong (feat. Tom Grennan) [Premiership VIP] - Single

: 26.08.2016
Издатель: Chase & Status, under exclusive licence to Mercury Records Limited

Треклист:
1. All Goes Wrong (feat. Tom Grennan) [Acoustic] (3:34)

2016 - All Goes Wrong (feat. Tom Grennan) [Acoustic] - Single

: 02.09.2016
Издатель: Chase & Status, under exclusive licence to Mercury Records Limited

Треклист:
1. All Goes Wrong (feat. Tom Grennan) [Acoustic] (3:41)

2016 - All Goes Wrong (feat. Tom Grennan) - Single

: 22.09.2016
Издатель: Chase & Status, under exclusive licence to Mercury Records Limited

Треклист:
1. All Goes Wrong (feat. Tom Grennan) (3:25)

2016 - All Goes Wrong (feat. Tom Grennan) [Dawn Wall Remix] - Single

: 14.10.2016
Издатель: Chase & Status, under exclusive licence to Mercury Records Limited

Треклист:
1. All Goes Wrong (feat. Tom Grennan) [Dawn Wall Remix] (4:21)

2016 - All Goes Wrong (feat. Tom Grennan) [Tough Love Remix] - Single

: 21.10.2016
Издатель: Chase & Status, under exclusive licence to Mercury Records Limited

Треклист:
1. All Goes Wrong (feat. Tom Grennan) [Tough Love Remix] (3:22)

2016 - All Goes Wrong (Salvatore Ganacci Remix) [feat. Tom Grennan] - Single

: 31.10.2016
Издатель: Chase & Status, under exclusive licence to Mercury Records Limited

Треклист:
1. All Goes Wrong (Salvatore Ganacci Remix) [feat. Tom Grennan] (2:43)

2017 - This Moment (feat. Blossoms) - Single

: 10.05.2017
Издатель: ℗ 2017 Chase & Status, under exclusive licence to Mercury Records Limited

Треклист:
1. This Moment (feat. Blossoms) (3:34)

2017 - This Moment (Back To the Rave C&S Remix) - Single

: 13.06.2017
Издатель: ℗ 2017 Chase & Status, under exclusive licence to Mercury Records Limited

Треклист:
1. This Moment (Back to the Rave C&S Remix) (4:36)
2. This Moment (Back to the Rave C&S Club Edit) (4:36)

2017 - This Moment (Eli & Fur Remix) - Single

: 26.06.2017
Издатель: ℗ 2017 Chase & Status, under exclusive licence to Mercury Records Limited

Треклист:
1. This Moment (Eli & Fur Remix) (5:55)

2017 - Love Me More (feat. Emeli Sandé) [Remixes] - Single

: 15.08.2017
Издатель: ℗ 2017 Chase & Status, under exclusive licence to Mercury Records Limited

Треклист:
1. Love Me More (feat. Emeli Sandé) [Denney Remix] (6:12)
2. Love Me More (feat. Emeli Sandé) [MJ Cole Remix] (5:43)


[geo-torrent.biz]_t_5285350.torrent
Torrent: Registered ·  [ 2019-06-26 22:36 ] ·  c7f02c69e7f3dd8d1eff3a49105fa788b71a00ba

36 KB

Status: checked
Completed: 0 times
Size: 2.03 GB
Rating: 
(Votes: 0)
Say thanks: 0  Thanks
Похожие темы
[Profile]    [PM]
Display posts from previous:    
Reply to topic

The time now is: Today 22:51

All times are GMT + 7 Hours



You cannot post new topics in this forum
You cannot reply to topics in this forum
You cannot edit your posts in this forum
You cannot delete your posts in this forum
You cannot vote in polls in this forum
You cannot attach files in this forum
You can download files in this forum