[DTSCD][UP] Enigma - Le Roi Est Mort, Vive Le Roi! - 2018 (Electronic, Downtempo, Experimental, New Age)

Reply to topic
DL-List and Torrent activity [Update пиров]
Size:  461 MB   |    Registered:  5 months 27 days   |    Completed:  0 times

Seeder not seen: Never

 
   
 
 
 
Author Message

Генри

Post 18-Jun-2019 01:15

[Quote]

Enigma - Le Roi Est Mort, Vive Le Roi! DTS UPMix
Формат файла записи/Источник записи: [DTSCD][UP]
Наличие водяных знаков: Нет
Год издания/переиздания диска: 2018
Жанр: Electronic, Downtempo, Experimental, New Age
Издатель (лейбл): Universal Music Group
Продолжительность: 00:45:42
Наличие сканов в содержимом раздачи: Только обложка альбома
Треклист:
01 Le Roi Est Mort, Vive Le Roi!
02 Morphing Thru Time
03 Third Of Its Kind
04 Beyond The Invisible
05 Why!...
06 Shadows In Silence
07 The Child In Us
08 T.N.T. For The Brain
09 Almost Full Moon
10 The Roundabout
11 Prism Of Life
12 Odyssey Of The Mind
Формат файла: WAV(*.wav)
Тип рипа: tracks
Разрядность: 16/44,1
Формат файла: DTS
Количество каналов: 5.1
Битрейт аудио: 1411 kbps

DR-лог

foobar2000 1.4.2 / Dynamic Range Meter 1.1.1log date: 2019-06-16 22:19:13
--------------------------------------------------------------------------------Analyzed: ? / ?--------------------------------------------------------------------------------
DR Peak RMS Duration Track--------------------------------------------------------------------------------DR9 -8.24 dB -22.00 dB 1:58 ?-01_Enigma - Le Roi Est Mort, Vive Le Roi! DTSDR11 -0.38 dB -13.00 dB 5:48 ?-02_Enigma - Morphing Thru Time DTSDR10 -15.41 dB -22.00 dB 0:14 ?-03_Enigma - Third Of Its Kind DTSDR10 -0.48 dB -13.00 dB 5:01 ?-04_Enigma - Beyond The Invisible DTSDR10 -0.46 dB -13.00 dB 4:56 ?-05_Enigma - Why!... DTSDR10 -0.20 dB -13.00 dB 4:29 ?-06_Enigma - Shadows In Silence DTSDR11 -0.50 dB -13.00 dB 5:05 ?-07_Enigma - The Child In Us DTSDR9 -0.45 dB -13.00 dB 4:28 ?-08_Enigma - T.N.T. For The Brain DTSDR10 -6.32 dB -20.00 dB 3:24 ?-09_Enigma - Almost Full Moon DTSDR11 -0.45 dB -13.00 dB 3:42 ?-10_Enigma - The Roundabout DTSDR10 -0.54 dB -13.00 dB 4:55 ?-11_Enigma - Prism Of Life DTSDR9 -7.24 dB -20.00 dB 1:41 ?-12_Enigma - Odyssey Of The Mind DTS--------------------------------------------------------------------------------
Number of tracks: 12Official DR value: DR10
Samplerate: 44100 HzChannels: 6Bits per sample: 16Bitrate: 1411 kbpsCodec: DTS================================================================================
Источник (релизер): Основой послужила раздача
Доп. информация: DJ S.A.W. DTS Upmix
Метод получения апмикса:
ручное выделение фазо-частотных фрагментов фонограммы с помощью функции CCE Adobe Audition
мультиканальный мастеринг – Аdobe Audition (встроенными эффектами и плагинами Waves, iZotope,
Starplugs и т.п.)


[geo-torrent.biz]_t_5745820.torrent
Torrent: Registered ·  [ 2019-06-18 01:15 ] ·  d7693a6ac5f482d45f53920e89c4b67e158f7368

19 KB

Status: checked
Completed: 0 times
Size: 461 MB
Rating: 
(Votes: 0)
Say thanks: 0  Thanks
Похожие темы
[Profile]    [PM]
Display posts from previous:    
Reply to topic

The time now is: Today 16:50

All times are GMT + 7 Hours



You cannot post new topics in this forum
You cannot reply to topics in this forum
You cannot edit your posts in this forum
You cannot delete your posts in this forum
You cannot vote in polls in this forum
You cannot attach files in this forum
You can download files in this forum