(Hard Rock) [WEB] Whitesnake - Flesh & Blood (Deluxe Edition) - 2019, FLAC (tracks), lossless

Reply to topic
DL-List and Torrent activity [Update пиров]
Size:  640 MB   |    Registered:  6 months 28 days   |    Completed:  2 times

Seeder not seen: 3 months 24 days

 
   
 
 
 
Author Message

Roni

Post 09-May-2019 20:33

[Quote]

Whitesnake - Flesh & Blood (Deluxe Edition)- Жанр: Hard Rock
Носитель: WEB
Год издания: 2019
Издатель-лейбл: Frontiers Records s.r.l.
Страна исполнителя: UK/USA
Аудиокодек: FLAC (*.flac)
Тип рипа: tracks
Битрейт аудио: lossless
Продолжительность: 01:23:06
Источник: интернет
Наличие сканов: нет

Треклист:
01. Good To See You Again (3:43)
02. Gonna Be Alright (3:52)
03. Shut Up & Kiss Me (3:37)
04. Hey You (You Make Me Rock) (5:30)
05. Always & Forever (3:53)
06. When I Think of You (Color Me Blue) (3:53)
07. Trouble Is Your Middle Name (4:17)
08. Flesh & Blood (5:18)
09. Well I Never (4:01)
10. Heart Of Stone (6:43)
11. Get Up (4:46)
12. After All (3:47)
13. Sands Of Time (6:09)
14. Can't Do Right For Doing Wrong (Bonus Track) (4:59)
15. If I Can't Have You (Bonus Track) (4:23)
16. Gonna Be Alright (X-Tendo Mix - Bonus Track) (4:12)
17. Sands Of Time (Radio Mix - Bonus Track) (6:21)
18. Shut Up & Kiss Me (Video Mix - Bonus Track) (3:44)

auCDtect

CUE Corrector v. 8.3.5 / b. 913 (Apr. 22, 2019)————————————————————————————————————————————————————————————————————————Whitesnake / Flesh & Blood (Deluxe Edition)
Folder: Whitesnake - 2019 - Flesh & Blood (Deluxe Edition) [FLAC]Audio files: 01 Good To See You Again.flac [03:42.547; FLAC • 1148 kbps • 16 bit \ 44100 Hz • stereo; 30.46 MB (31 937 997 B)] 02 Gonna Be Alright.flac [03:51.680; FLAC • 1090 kbps • 16 bit \ 44100 Hz • stereo; 30.12 MB (31 580 655 B)] 03 Shut Up & Kiss Me.flac [03:37.333; FLAC • 1115 kbps • 16 bit \ 44100 Hz • stereo; 28.91 MB (30 316 100 B)] 04 Hey You (You Make Me Rock).flac [05:29.640; FLAC • 1086 kbps • 16 bit \ 44100 Hz • stereo; 42.68 MB (44 752 939 B)] 05 Always & Forever.flac [03:53.067; FLAC • 1112 kbps • 16 bit \ 44100 Hz • stereo; 30.90 MB (32 398 078 B)] 06 When I Think of You (Color Me Blue).flac [03:52.840; FLAC • 1078 kbps • 16 bit \ 44100 Hz • stereo; 29.93 MB (31 386 883 B)] 07 Trouble Is Your Middle Name.flac [04:17.067; FLAC • 1083 kbps • 16 bit \ 44100 Hz • stereo; 33.19 MB (34 805 577 B)] 08 Flesh & Blood.flac [05:18.413; FLAC • 1122 kbps • 16 bit \ 44100 Hz • stereo; 42.60 MB (44 664 176 B)] 09 Well I Never.flac [04:01.427; FLAC • 1091 kbps • 16 bit \ 44100 Hz • stereo; 31.42 MB (32 947 713 B)] 10 Heart Of Stone.flac [06:42.587; FLAC • 1032 kbps • 16 bit \ 44100 Hz • stereo; 49.55 MB (51 959 689 B)] 11 Get Up.flac [04:45.573; FLAC • 1090 kbps • 16 bit \ 44100 Hz • stereo; 37.12 MB (38 922 255 B)] 12 After All.flac [03:47.347; FLAC • 887 kbps • 16 bit \ 44100 Hz • stereo; 24.06 MB (25 231 547 B)] 13 Sands Of Time.flac [06:08.773; FLAC • 1077 kbps • 16 bit \ 44100 Hz • stereo; 47.39 MB (49 690 123 B)] 14 Can't Do Right For Doing Wrong (Bonus Track).flac [04:58.800; FLAC • 1002 kbps • 16 bit \ 44100 Hz • stereo; 35.70 MB (37 432 390 B)] 15 If I Can't Have You (Bonus Track).flac [04:23.347; FLAC • 1092 kbps • 16 bit \ 44100 Hz • stereo; 34.29 MB (35 957 039 B)] 16 Gonna Be Alright (X-Tendo Mix - Bonus Track).flac [04:12.107; FLAC • 1075 kbps • 16 bit \ 44100 Hz • stereo; 32.33 MB (33 903 036 B)] 17 Sands Of Time (Radio Mix - Bonus Track).flac [06:20.800; FLAC • 1090 kbps • 16 bit \ 44100 Hz • stereo; 49.49 MB (51 896 318 B)] 18 Shut Up & Kiss Me (Video Mix - Bonus Track).flac [03:43.493; FLAC • 1111 kbps • 16 bit \ 44100 Hz • stereo; 29.61 MB (31 053 103 B)]
Accuracy: -m0
File 01 Good To See You Again - 100% CDDA [03:42:41]File 02 Gonna Be Alright - 99% CDDA [03:51:51]File 03 Shut Up & Kiss Me - 100% CDDA [03:37:25]File 04 Hey You (You Make Me Rock) - 100% CDDA [05:29:48]File 05 Always & Forever - 100% CDDA [03:53:05]File 06 When I Think of You (Color Me Blue) - 100% CDDA [03:52:63]File 07 Trouble Is Your Middle Name - 100% CDDA [04:17:05]File 08 Flesh & Blood - 99% CDDA [05:18:31]File 09 Well I Never - 100% CDDA [04:01:32]File 10 Heart Of Stone - 100% CDDA [06:42:44]File 11 Get Up - 100% CDDA [04:45:43]File 12 After All - 99% CDDA [03:47:26]File 13 Sands Of Time - 100% CDDA [06:08:58]File 14 Can't Do Right For Doing Wrong (Bonus Track) - 100% CDDA [04:58:60]File 15 If I Can't Have You (Bonus Track) - 100% CDDA [04:23:26]File 16 Gonna Be Alright (X-Tendo Mix - Bonus Track) - 100% CDDA [04:12:08]File 17 Sands Of Time (Radio Mix - Bonus Track) - 100% CDDA [06:20:60]File 18 Shut Up & Kiss Me (Video Mix - Bonus Track) - 100% CDDA [03:43:37]————— Summary: —————These tracks looks like CDDA with probability 100%.————————————————————————————————————————————————————————————————————————
ANALYZER: auCDtect: CD records authenticity detector, version 0.8.2 Copyright (c) 2004 Oleg Berngardt. All rights reserved. Copyright (c) 2004 Alexander Djourik. All rights reserved.
Time elapsed: 3 m 56 sLog created at May 09, 2019 15:57:18
=== 11DF85A6C58A9C23086712FCCC4ADF321223F0632F57E5E94C2BD5A5AADC0BD7 ===

DR

foobar2000 1.4.3 / Замер динамического диапазона (DR) 1.1.1Дата отчёта: 2019-05-09 15:58:10
--------------------------------------------------------------------------------Анализ: Whitesnake / Flesh & Blood (Deluxe Edition)--------------------------------------------------------------------------------
DR Пики RMS Продолжительность трека--------------------------------------------------------------------------------DR6 -0.23 дБ -6.52 дБ 3:43 01-Good To See You AgainDR6 -0.36 дБ -6.54 дБ 3:52 02-Gonna Be AlrightDR5 -0.30 дБ -6.22 дБ 3:37 03-Shut Up & Kiss MeDR6 -0.27 дБ -6.74 дБ 5:30 04-Hey You (You Make Me Rock)DR6 -0.35 дБ -6.72 дБ 3:53 05-Always & ForeverDR6 -0.33 дБ -6.84 дБ 3:53 06-When I Think of You (Color Me Blue)DR6 -0.30 дБ -7.17 дБ 4:17 07-Trouble Is Your Middle NameDR5 -0.27 дБ -6.87 дБ 5:18 08-Flesh & BloodDR6 -0.19 дБ -6.72 дБ 4:01 09-Well I NeverDR5 -0.31 дБ -6.57 дБ 6:43 10-Heart Of StoneDR6 -0.25 дБ -6.94 дБ 4:46 11-Get UpDR7 -0.96 дБ -9.81 дБ 3:47 12-After AllDR6 -0.33 дБ -6.95 дБ 6:09 13-Sands Of TimeDR5 -0.35 дБ -6.32 дБ 4:59 14-Can't Do Right For Doing Wrong (Bonus Track)DR6 -0.22 дБ -6.96 дБ 4:23 15-If I Can't Have You (Bonus Track)DR6 -0.29 дБ -6.54 дБ 4:12 16-Gonna Be Alright (X-Tendo Mix - Bonus Track)DR6 -0.26 дБ -6.72 дБ 6:21 17-Sands Of Time (Radio Mix - Bonus Track)DR5 -0.37 дБ -6.36 дБ 3:43 18-Shut Up & Kiss Me (Video Mix - Bonus Track)--------------------------------------------------------------------------------
Количество треков: 18Реальные значения DR: DR6
Частота: 44100 ГцКаналов: 2Разрядность: 16Битрейт: 1100 кбит/сКодек: FLAC================================================================================


[geo-torrent.biz]_t_5729682.torrent
Torrent: Registered ·  [ 2019-05-09 20:33 ] ·  31896370e0cb4fa29256b27e2af498de282033b2

14 KB

Status: checked
Completed: 2 times
Size: 640 MB
Rating: 
(Votes: 0)
Say thanks: 0  Thanks
Похожие темы
[Profile]    [PM]
Display posts from previous:    
Reply to topic

The time now is: Today 03:27

All times are GMT + 7 Hours



You cannot post new topics in this forum
You cannot reply to topics in this forum
You cannot edit your posts in this forum
You cannot delete your posts in this forum
You cannot vote in polls in this forum
You cannot attach files in this forum
You can download files in this forum