(Blues Rock) [CD] Reese Wynans and Friends - Sweet Release - 2019, FLAC (image+.cue), lossless

Reply to topic
DL-List and Torrent activity [Update пиров]
Size:  502 MB   |    Registered:  5 months 11 days   |    Completed:  0 times

Seeder not seen: Never

 
   
 
 
 
Author Message

Пушистый

Post 08-May-2019 17:14

[Quote]

Reese Wynans and Friends - Sweet Release
Жанр: Blues Rock
Носитель: CD
Страна-производитель диска (релиза): RU (Unofficial Release)
Год издания: 2019
Издатель (лейбл): Provogue / Mascot Label Group / J&R Adventures / Flying Piano
Номер по каталогу: PRD 7576 2
Страна исполнителя (группы): USA
Аудиокодек: FLAC (*.flac)
Тип рипа: image+.cue
Битрейт аудио: lossless
Продолжительность: 01:10:39
Источник (релизер): Sket4er
Наличие сканов в содержимом раздачи: да
Треклист:
01. Crossfire
02. Say What
03. That Driving Beat
04. Youre Killing My Love
05. Sweet Release
06. Shape Im In
07. Hard To Be
08. Riviera Paradise
09. Take The Time
10. So Much Trouble
11. Ive Got A Right To Be Blue
12. Soul Island
13. Blackbird

Лог создания рипа

Exact Audio Copy V1.3 from 2. September 2016
EAC extraction logfile from 23. April 2019, 20:25
Reese Wynans & Friends / Sweet Release
Used drive : TSSTcorpCDDVDW SH-224DB Adapter: 1 ID: 0
Read mode : SecureUtilize accurate stream : YesDefeat audio cache : YesMake use of C2 pointers : No
Read offset correction : 6Overread into Lead-In and Lead-Out : NoFill up missing offset samples with silence : YesDelete leading and trailing silent blocks : NoNull samples used in CRC calculations : YesUsed interface : Native Win32 interface for Win NT & 2000
Used output format : User Defined EncoderSelected bitrate : 1024 kBit/sQuality : HighAdd ID3 tag : NoCommand line compressor : C:\Program Files (x86)\Exact Audio Copy\Flac\flac.exeAdditional command line options : -V -8 -T "Genre=%genre%" -T "Artist=%artist%" -T "Title=%title%" -T "Album=%albumtitle%" -T "Date=%year%" -T "Tracknumber=%tracknr%" -T "Comment=%comment%" %source%
TOC of the extracted CD
Track | Start | Length | Start sector | End sector --------------------------------------------------------- 1 | 0:00.00 | 5:05.35 | 0 | 22909 2 | 5:05.35 | 5:50.20 | 22910 | 49179 3 | 10:55.55 | 3:46.07 | 49180 | 66136 4 | 14:41.62 | 5:46.63 | 66137 | 92149 5 | 20:28.50 | 6:59.62 | 92150 | 123636 6 | 27:28.37 | 4:29.30 | 123637 | 143841 7 | 31:57.67 | 5:24.63 | 143842 | 168204 8 | 37:22.55 | 7:25.02 | 168205 | 201581 9 | 44:47.57 | 5:18.28 | 201582 | 225459 10 | 50:06.10 | 5:24.25 | 225460 | 249784 11 | 55:30.35 | 4:47.70 | 249785 | 271379 12 | 60:18.30 | 6:37.70 | 271380 | 301224 13 | 66:56.25 | 3:42.42 | 301225 | 317916
Range status and errors
Selected range
Filename G:\Sket4er\Reese Wynans And Friends – Sweet Release 2019\Reese Wynans & Friends - Sweet Release.wav
Peak level 100.0 % Extraction speed 3.3 X Range quality 100.0 % Test CRC 320320EE Copy CRC 320320EE Copy OK
No errors occurred
AccurateRip summary
Track 1 not present in databaseTrack 2 not present in databaseTrack 3 not present in databaseTrack 4 not present in databaseTrack 5 not present in databaseTrack 6 not present in databaseTrack 7 not present in databaseTrack 8 not present in databaseTrack 9 not present in databaseTrack 10 not present in databaseTrack 11 not present in databaseTrack 12 not present in databaseTrack 13 not present in database
None of the tracks are present in the AccurateRip database
End of status report
---- CUETools DB Plugin V2.1.6
[CTDB TOCID: RS9MYejI_BF1LWuKpp.uRs4Nuik-] foundSubmit result: RS9MYejI_BF1LWuKpp.uRs4Nuik- has been confirmedTrack | CTDB Status 1 | (11/27) Accurately ripped 2 | (11/27) Accurately ripped 3 | (11/27) Accurately ripped 4 | (11/27) Accurately ripped 5 | (11/27) Accurately ripped 6 | (11/27) Accurately ripped 7 | (11/27) Accurately ripped 8 | (11/27) Accurately ripped 9 | (11/27) Accurately ripped 10 | (11/27) Accurately ripped 11 | (11/27) Accurately ripped 12 | (11/27) Accurately ripped 13 | (11/27) Accurately ripped
==== Log checksum 5C7B193ED5305E14E23A49583B8A9C55FE2FE6316A44F2FCC4EDA99CD9B89517 ====

Содержание индексной карты (.CUE)

REM GENRE RockREM DATE 2019REM DISCID AA108E0DREM COMMENT "ExactAudioCopy v1.3"PERFORMER "Reese Wynans & Friends"TITLE "Sweet Release"REM COMPOSER ""FILE "Reese Wynans & Friends - Sweet Release.flac" WAVE TRACK 01 AUDIO TITLE "Crossfire" PERFORMER "Reese Wynans & Friends" REM COMPOSER "" INDEX 01 00:00:00 TRACK 02 AUDIO TITLE "Say What!" PERFORMER "Reese Wynans & Friends" REM COMPOSER "" INDEX 01 05:05:35 TRACK 03 AUDIO TITLE "That Driving Beat" PERFORMER "Reese Wynans & Friends" REM COMPOSER "" INDEX 01 10:55:55 TRACK 04 AUDIO TITLE "You're Killing My Love" PERFORMER "Reese Wynans & Friends" REM COMPOSER "" INDEX 01 14:41:62 TRACK 05 AUDIO TITLE "Sweet Release" PERFORMER "Reese Wynans & Friends" REM COMPOSER "" INDEX 01 20:28:50 TRACK 06 AUDIO TITLE "Shape I'm In" PERFORMER "Reese Wynans & Friends" REM COMPOSER "" INDEX 01 27:28:37 TRACK 07 AUDIO TITLE "Hard To Be" PERFORMER "Reese Wynans & Friends" REM COMPOSER "" INDEX 01 31:57:67 TRACK 08 AUDIO TITLE "Riviera Paradise" PERFORMER "Reese Wynans & Friends" REM COMPOSER "" INDEX 01 37:22:55 TRACK 09 AUDIO TITLE "Take The Time" PERFORMER "Reese Wynans & Friends" REM COMPOSER "" INDEX 01 44:47:57 TRACK 10 AUDIO TITLE "So Much Trouble" PERFORMER "Reese Wynans & Friends" REM COMPOSER "" INDEX 01 50:06:10 TRACK 11 AUDIO TITLE "I've Got A Right To Be Blue" PERFORMER "Reese Wynans & Friends" REM COMPOSER "" INDEX 01 55:30:35 TRACK 12 AUDIO TITLE "Soul Island" PERFORMER "Reese Wynans & Friends" REM COMPOSER "" INDEX 01 60:18:30 TRACK 13 AUDIO TITLE "Blackbird" PERFORMER "Reese Wynans & Friends" REM COMPOSER "" INDEX 01 66:56:25

Лог проверки качества

-----------------------
DON'T MODIFY THIS FILE
-----------------------
PERFORMER: auCDtect Task Manager, ver. 1.5.1RC4 build 1.5.1.5Copyright (c) 2008-2010 y-soft. All rights reservedhttp://y-soft.org
ANALYZER: auCDtect: CD records authenticity detector, version 0.8.2Copyright (c) 2004 Oleg Berngardt. All rights reserved.Copyright (c) 2004 Alexander Djourik. All rights reserved.
FILE: Reese Wynans & Friends - Sweet Release.flac Size: 515885545 Hash: 94E259D128EF726E5C30B426F2BDCC3D Accuracy: -m0 Conclusion: CDDA 100% Signature: E61AAEBB0B5E65F190368F521119F9EF61AD1C23

DR log

foobar2000 1.3.9 / Замер динамического диапазона (DR) 1.1.1Дата отчёта: 2019-04-24 19:22:10
--------------------------------------------------------------------------------Анализ: Reese Wynans & Friends / Sweet Release--------------------------------------------------------------------------------
DR Пики RMS Продолжительность трека--------------------------------------------------------------------------------DR7 0.00 дБ -8.29 дБ 5:05 1-CrossfireDR7 0.00 дБ -7.61 дБ 5:50 2-Say What!DR6 0.00 дБ -7.73 дБ 3:46 3-That Driving BeatDR6 0.00 дБ -7.48 дБ 5:47 4-You're Killing My LoveDR8 0.00 дБ -10.41 дБ 7:00 5-Sweet ReleaseDR5 0.00 дБ -6.66 дБ 4:29 6-Shape I'm InDR6 0.00 дБ -7.24 дБ 5:25 7-Hard To BeDR7 0.00 дБ -10.20 дБ 7:25 8-Riviera ParadiseDR6 0.00 дБ -7.43 дБ 5:18 9-Take The TimeDR8 0.00 дБ -8.90 дБ 5:24 10-So Much TroubleDR11 -0.08 дБ -13.69 дБ 4:48 11-I've Got A Right To Be BlueDR8 0.00 дБ -9.46 дБ 6:38 12-Soul IslandDR12 -0.49 дБ -15.98 дБ 3:43 13-Blackbird--------------------------------------------------------------------------------
Количество треков: 13Реальные значения DR: DR8
Частота: 44100 ГцКаналов: 2Разрядность: 16Битрейт: 973 кбит/сКодек: FLAC================================================================================
Доп. информация

Об исполнителе

After 50 years of playing music, legendary keyboard/organ player Reese Wynans steps into the spotlight with his first solo album "Reese Wynans and Friends: Sweet Release". The album will be released on March 1, 2019 on Mascot Label Group/Provogue Records.
Reese Wynans has played with everybody since the late 60's, from Duane Allman to Boz Scaggs to Jerry Jeff Walker and Carole King, before his famous stint in Stevie Ray Vaughan's band Double Trouble. Since 2015 he has been an integral part of Joe Bonamassa's band, playing to worldwide audiences.
On "Sweet Release", Reese is joined by his Double Trouble bandmates Tommy Shannon and Chris Layton, guitarists Joe Bonamassa, Kenny Wayne Shepherd and Doyle Bramhall II, vocalists Sam Moore and Bonnie Bramlett, and many others, to pay tribute to songs from his recording career with Stevie Ray Vaughan, and other favorites, like bluesmen Otis Rush and Tampa Red.
http://www.mascotlabelgroup.com/reese-wynans-sweet-release-cd.html
http://shop.jbonamassa.com/products/reese-wynans-and-friends-sweet-release-cd
http://www.amazon.com/Sweet-Release-Reese-Wynans-Friends/dp/B07MS86QZH


[geo-torrent.biz]_t_5728626.torrent
Torrent: Registered ·  [ 2019-05-08 17:14 ] ·  acf57c788dc5aa81f33f246af77587dc61c9c86a

21 KB

Status: checked
Completed: 0 times
Size: 502 MB
Rating: 
(Votes: 0)
Say thanks: 0  Thanks
Похожие темы
[Profile]    [PM]
Display posts from previous:    
Reply to topic

The time now is: Today 11:36

All times are GMT + 7 Hours



You cannot post new topics in this forum
You cannot reply to topics in this forum
You cannot edit your posts in this forum
You cannot delete your posts in this forum
You cannot vote in polls in this forum
You cannot attach files in this forum
You can download files in this forum