[TR24][OF] P!nk (Pink) - Hurts 2B Human - 2019 (Pop Rock/ Pop)

Reply to topic
DL-List and Torrent activity [Update пиров]
Size:  545 MB   |    Registered:  7 months 8 days   |    Completed:  0 times

Seeder not seen: Never

 
   
 
 
 
Author Message

КЭП

Post 05-May-2019 19:21

[Quote]

P!nk - Hurts 2B Human- Формат файла / Источник записи: [TR24][OF]
Наличие водяных знаков: Нет
Год издания: 2019
Жанр: Pop
Издатель-лейбл: RCA Records Label
Продолжительность: 00:47:08
Наличие сканов: Нет
Формат файла: FLAC (*.flac)
Тип рипа: tracks
Разрядность: 24/44.1
Формат файла: PCM
Количество каналов: 2.0
Источник: интернет

Треклист:
01. Hustle (2:56)
02. (Hey Why) Miss You Sometime (3:23)
03. Walk Me Home (2:59)
04. My Attic (3:02)
05. 90 Days (3:51)
06. Hurts 2B Human (3:23)
07. Can We Pretend (3:44)
08. Courage (4:19)
09. Happy (3:02)
10. We Could Have It All (4:33)
11. Love Me Anyway (3:08)
12. Circle Game (4:54)
13. The Last Song Of Your Life (3:54)

Лог проверки качества

foobar2000 1.4.3 / Замер динамического диапазона (DR) 1.1.1Дата отчёта: 2019-04-28 10:54:50
--------------------------------------------------------------------------------Анализ: P!nk / Hurts 2B Human--------------------------------------------------------------------------------
DR Пики RMS Продолжительность трека--------------------------------------------------------------------------------DR4 0.00 дБ -6.20 дБ 2:56 01-HustleDR5 0.00 дБ -7.25 дБ 3:23 02-(Hey Why) Miss You SometimeDR5 0.00 дБ -8.22 дБ 2:59 03-Walk Me HomeDR5 0.00 дБ -8.30 дБ 3:02 04-My AtticDR7 0.00 дБ -9.11 дБ 3:51 05-90 DaysDR4 0.00 дБ -7.09 дБ 3:23 06-Hurts 2B HumanDR3 -0.10 дБ -6.04 дБ 3:44 07-Can We PretendDR5 0.00 дБ -6.57 дБ 4:19 08-CourageDR4 0.00 дБ -6.46 дБ 3:02 09-HappyDR4 0.00 дБ -5.65 дБ 4:33 10-We Could Have It AllDR6 0.00 дБ -9.40 дБ 3:08 11-Love Me AnywayDR7 -0.55 дБ -9.60 дБ 4:54 12-Circle GameDR8 0.00 дБ -11.71 дБ 3:54 13-The Last Song Of Your Life--------------------------------------------------------------------------------
Количество треков: 13Реальные значения DR: DR5
Частота: 44100 ГцКаналов: 2Разрядность: 24Битрейт: 1411 кбит/сКодек: FLAC================================================================================


[geo-torrent.biz]_t_5724589.torrent
Torrent: Registered ·  [ 2019-05-05 19:11 ] ·  b1b137564d5f238046c4610bad05951d1783eec9

12 KB

Status: checked
Completed: 0 times
Size: 545 MB
Rating: 
(Votes: 0)
Say thanks: 0  Thanks
Похожие темы
[Profile]    [PM]
Display posts from previous:    
Reply to topic

The time now is: Today 06:03

All times are GMT + 7 Hours



You cannot post new topics in this forum
You cannot reply to topics in this forum
You cannot edit your posts in this forum
You cannot delete your posts in this forum
You cannot vote in polls in this forum
You cannot attach files in this forum
You can download files in this forum