Discovery: Крупнейший в мире корабль (Серии 1-6 из 6) (Бенжамин Стотт) / Discovery: The World\'s Biggest Ship (Benjamin Stott) (Бенжамин Стотт / Benjamin Stott) [2013, документальный, научно-познавательный, SATRip]

Reply to topic
DL-List and Torrent activity [Update пиров]
Size:  1.82 GB   |    Registered:  7 months 8 days   |    Completed:  0 times

Seeder not seen: Never

 
   
 
 
 
Author Message

КЭП

Post 03-May-2019 23:24

[Quote]

Discovery: Крупнейший в мире корабль (Бенжамин Стотт) / Discovery: The World's Biggest Ship (Benjamin Stott)
Год выхода: 2013
Страна: США
Жанр: документальный, научно-познавательный
Продолжительность: 00:43:28
Перевод: Профессиональный (многоголосый закадровый)
Русские субтитры: нет
Режиссер: Бенжамин Стотт / Benjamin Stott
Описание: Крупнейший датский оператор контейнеровозов и судов снабжения в мире - Maersk и канал Discovery объединили свои усилия, чтобы показать нам каждый этап строительства 400-метрового судна «Triple-E». Размеры корпуса ограничены только портами, которые могут принимать этот контейнеровоз.
В этой серии: Корабль сошел со стапелей, проходит морские испытания и загружается в первый рейс.
Это первый контейнеровоз в серии из двадцати заказанных судостроителям гигантов.
Следите за всеми нюансами плавания «Triple-E» и работы его команды.
качество: SATRip
формат: MP4
Видео: 654x370, 657 kbps, 29 fps, AVC
Аудио: 128.00 kbps avg, 48 kHz, 2 ch, AAC
Сэмпл
Торрент обновлён 10.04.2019

Список выпусков/серий

1 cерия (Огромный корпус)
2 cерия (Огромный двигатель)
3 cерия (Капитанский мостик - мозг корабля)
4 cерия (Гигантский трюм)
5 серия (Спуск на воду)
6 cерия (Первое плавание)

MediaInfo

General
Complete name : The World's Biggest Ship (1).mp4
Format : MPEG-4
Format profile : Base Media / Version 2
Codec ID : mp42 (isom/iso2/avc1/mp41)
File size : 247 MiB
Duration : 43 min 28 s
Overall bit rate : 794 kb/s
Encoded date : UTC 2019-03-26 12:21:44
Tagged date : UTC 2019-03-26 12:21:44
Writing application : HandBrake 1.2.0 2018121700
Video
ID : 1
Format : AVC
Format/Info : Advanced Video Codec
Format profile : High@L4
Format settings : CABAC / 16 Ref Frames
Format settings, CABAC : Yes
Format settings, RefFrames : 16 frames
Codec ID : avc1
Codec ID/Info : Advanced Video Coding
Duration : 43 min 28 s
Bit rate : 657 kb/s
Width : 654 pixels
Height : 370 pixels
Display aspect ratio : 16:9
Frame rate mode : Constant
Frame rate : 29.970 (30000/1001) FPS
Color space : YUV
Chroma subsampling : 4:2:0
Bit depth : 8 bits
Scan type : Progressive
Bits/(Pixel*Frame) : 0.091
Stream size : 204 MiB (83%)
Writing library : x264 core 157 r2935 545de2f
Encoding settings : cabac=1 / ref=16 / deblock=1:-1:-1 / analyse=0x3:0x133 / me=umh / subme=10 / psy=1 / psy_rd=1.00:0.15 / mixed_ref=1 / me_range=24 / chroma_me=1 / trellis=2 / 8x8dct=1 / cqm=0 / deadzone=21,11 / fast_pskip=1 / chroma_qp_offset=-3 / threads=12 / lookahead_threads=2 / sliced_threads=0 / nr=0 / decimate=1 / interlaced=0 / bluray_compat=0 / constrained_intra=0 / bframes=8 / b_pyramid=2 / b_adapt=2 / b_bias=0 / direct=3 / weightb=1 / open_gop=0 / weightp=2 / keyint=300 / keyint_min=30 / scenecut=40 / intra_refresh=0 / rc_lookahead=60 / rc=crf / mbtree=1 / crf=20.0 / qcomp=0.60 / qpmin=0 / qpmax=69 / qpstep=4 / vbv_maxrate=25000 / vbv_bufsize=31250 / crf_max=0.0 / nal_hrd=none / filler=0 / ip_ratio=1.40 / aq=1:1.00
Encoded date : UTC 2019-03-26 12:21:44
Tagged date : UTC 2019-03-26 12:21:44
Color range : Limited
Color primaries : BT.601 NTSC
Transfer characteristics : BT.709
Matrix coefficients : BT.601
Codec configuration box : avcC
Audio
ID : 2
Format : AAC LC
Format/Info : Advanced Audio Codec Low Complexity
Codec ID : mp4a-40-2
Duration : 43 min 28 s
Bit rate mode : Constant
Bit rate : 128 kb/s
Channel(s) : 2 channels
Channel layout : L R
Sampling rate : 48.0 kHz
Frame rate : 46.875 FPS (1024 SPF)
Compression mode : Lossy
Stream size : 39.8 MiB (16%)
Title : Stereo
Language : English
Default : Yes
Alternate group : 1
Encoded date : UTC 2019-03-26 12:21:44
Tagged date : UTC 2019-03-26 12:21:44

Скриншоты



[geo-torrent.biz]_t_4622780.torrent
Torrent: Registered ·  [ 2019-05-03 23:22 ] ·  c9fff2adb07d37312be03f65645ea531170de574

74 KB

Status: checked
Completed: 0 times
Size: 1.82 GB
Rating: 
(Votes: 0)
Say thanks: 0  Thanks
Похожие темы
[Profile]    [PM]
Display posts from previous:    
Reply to topic

The time now is: Today 09:45

All times are GMT + 7 Hours



You cannot post new topics in this forum
You cannot reply to topics in this forum
You cannot edit your posts in this forum
You cannot delete your posts in this forum
You cannot vote in polls in this forum
You cannot attach files in this forum
You can download files in this forum