Одна абсолютно счастливая деревня (Петр Фоменко) [2019, драма, этюды, WEB-DL-AVC] Театр «Мастерская Петра Фоменко»

Reply to topic
DL-List and Torrent activity [Update пиров]
Size:  7.36 GB   |    Registered:  7 months 7 days   |    Completed:  1 time

Seeder not seen: 6 months 27 days

 
   
 
 
 
Author Message

Кейт

Post 01-May-2019 17:45

[Quote]

Одна абсолютно счастливая деревня
Название театра: Театр «Мастерская Петра Фоменко»
Жанр: драма, этюды
Год выхода: 2019
Продолжительность: 02:06:57
Режиссёр: Петр Фоменко
В ролях:
Михеев - Евгений Цыганов
Полина - Полина Агуреева
Учитель, Капитан - Олег Любимов
Огородное пугало, Дремучий дед, Колодец с журавлем, Санитар, Замполит - Карэн Бадалов
Баба Фима - Мадлен Джабраилова
Егоровна - Наталья Мартынова
Мать Полины - Наталия Курдюбова
Постаногов, Полковник, Мастер - Тагир Рахимов
Сосед, Майор - Сергей Якубенко
Тракторист - Никита Тюнин
Корова - Мадлен Джабраилова
Куропаткин - Томас Моцкус
Франц - Илья Любимов-Описание: Стремление приобщить зрителей к поэтическому миру прозы Вахтина, найти родственную автору атмосферу привело создателей спектакля к форме этюдов, сценических зарисовок, предельно условных и открытых для зрительского восприятия. Поиски интонации, тонкой грани между условностью и подлинностью переживания были главными в этой работе.
В необычном игровом пространстве Мастерской важно было воссоздать особый образный строй повести, в котором соединены подлинная жизнь, фантазия, сон, где действуют и корова, и колодец с журавлем, и огородное пугало, а главными персонажами являются Река, Земля, Деревня. «...А про абсолютно счастливую деревню — это ведь не повесть и не поэма, это просто песня... И в эту песню ворвалась война...».
«Одна абсолютно счастливая деревня» — это серия легких полуфантастических этюдов о повседневной жизни простой русской деревни в годы Второй мировой войны. Центральных ролей в спектакле нет, но вероятно, частью ажиотажа спектакль обязан наиболее узнаваемым ученикам Фоменко — Евгению Цыганову и Полине Агуреевой. И да, в 2001 году «Деревня» получила «Золотую Маску» как лучший спектакль малой формы.-Доп. информация: исходная запись онлайн-трансляции 2 марта 2019 года в рамках проекта "Я в театре", конвертации не подвергалась.
Качество видео: WEB-DL
Формат файла: MKV
Видео: AVC (H264), 1920x1080 (16:9), 25 fps, 8167 kbps
Аудио: AAC, 129 kbps, 2 channels, 48 kHz

MediaInfo

GeneralUnique ID : 102308584233824557295967996312868660915 (0x4CF7EAA5EDE006E07D1A9F273AC8A6B3)Complete name : D:\Work\Video\Одна абсолютно счастливая деревня (02.03.2019).mkvFormat : MatroskaFormat version : Version 4File size : 7.36 GiBDuration : 2 h 6 minOverall bit rate : 8 300 kb/sEncoded date : UTC 2019-03-12 00:17:46Writing application : mkvmerge v30.1.0 ('Forever And More') 64-bitWriting library : libebml v1.3.6 + libmatroska v1.4.9
VideoID : 1Format : AVCFormat/Info : Advanced Video CodecFormat profile : Baseline@L4Format settings : 3 Ref FramesFormat settings, CABAC : NoFormat settings, RefFrames : 3 framesFormat settings, GOP : M=1, N=12Codec ID : V_MPEG4/ISO/AVCDuration : 2 h 6 minBit rate : 8 167 kb/sWidth : 1 920 pixelsHeight : 1 080 pixelsDisplay aspect ratio : 16:9Frame rate mode : ConstantFrame rate : 25.000 FPSColor space : YUVChroma subsampling : 4:2:0Bit depth : 8 bitsScan type : ProgressiveBits/(Pixel*Frame) : 0.158Stream size : 7.24 GiB (98%)Default : YesForced : NoColor range : Full
AudioID : 2Format : AAC LCFormat/Info : Advanced Audio Codec Low ComplexityCodec ID : A_AAC-2Duration : 2 h 6 minBit rate : 129 kb/sChannel(s) : 2 channelsChannel layout : L RSampling rate : 48.0 kHzFrame rate : 46.875 FPS (1024 SPF)Compression mode : LossyStream size : 117 MiB (2%)Default : YesForced : No

Скриншоты



[geo-torrent.biz]_t_5704527.torrent
Torrent: Registered ·  [ 2019-05-01 17:42 ] ·  22ac801b227406ac0adb53669976333fbf121f73

19 KB

Status: checked
Completed: 1 times
Size: 7.36 GB
Rating: 
(Votes: 0)
Say thanks: 0  Thanks
Похожие темы
[Profile]    [PM]
Display posts from previous:    
Reply to topic

The time now is: Today 22:24

All times are GMT + 7 Hours



You cannot post new topics in this forum
You cannot reply to topics in this forum
You cannot edit your posts in this forum
You cannot delete your posts in this forum
You cannot vote in polls in this forum
You cannot attach files in this forum
You can download files in this forum