Люпен III: Замок Калиостро / Lupin Sansei: Cagliostro no Shiro / Lupin the Third: The Castle of Cagliostro [Movie] [Без хардсаба] [RUS(int), JAP, SUB] [1979, аниме, фэнтези, приключения, BDRip] [1080p]

Reply to topic
DL-List and Torrent activity [Update пиров]
Size:  2.59 GB   |    Registered:  7 months 9 days   |    Completed:  0 times

Seeder not seen: Never

 
   
 
 
 
Author Message

Mak

Post 29-Apr-2019 15:23

[Quote]

Люпен III: Замок Калиостро
Lupin Sansei: Cagliostro no Shiro / Lupin the Third: The Castle of Cagliostro
-Год выхода: 1979
Страна: Япония
Жанр: фэнтези, приключения
Тип: полнометражный фильм
Продолжительность: 01:39:29
Перевод: Многоголосый [Сонотек/RUSCICO]
Субтитры 1: Русские [текст Сонотек/Ruscico, стихи BurniN∙SnikerS],
Субтитры 2: Английские
Субтитры 3: Японские-Режиссёр: Хаяо Миядзаки
Студия: TMS и Telecom Animation Film-Описание: Знаменитый аферист века Арсен Люпен Третий лихо проворачивает грандиозную кражу на миллионы долларов, после чего узнаёт, что оказавшаяся в его руках добыча — искуснейшая подделка, сфабрикованная в карликовом европейском княжестве Калиостро, правители которого многие века промышляли производством разнообразных фальшивых купюр.
Не привыкший проигрывать Люпен направляется в замок князей Калиостро, но поиск денег отходит на второй план, когда он встречает очаровательную княжну Кларисс…-Качество: BDRip-HEVC 1080p
Формат файла: MKV
Видео кодек: x265@10bit
Аудио кодек: AC3
Видео: 1920x1040, 23.976 fps, HEVC, ~3063 kbps, 10bit
Аудио: Rus, 48 kHz/16-bit, AC3 2.0, ~192 kbps | RUSCICO
Аудио: Jpn, 48 kHz/16-bit, AC3 5.1, ~448 kbps | Оригинал
Навигация по главам: Отсутствует- Alex_A- - -

Внимание!

- H.265/HEVC (High Efficiency Video Coding) - это новый стандарт кодирования видео.
- Стандарт H.265/HEVC является логическим продолжением стандарта H.264/AVC (Advanced Video Coding), и характеризуется более эффективными алгоритмами сжатия, а также поддержкой высокого разрешения вплоть до 8K UHD (8192x4320). Первая версия стандарта H.265 была опубликована в начале 2013 года.
- Рипы в фомате HEVC поддерживается не всеми аппаратными проигрывателями.
- Для корректного воспроизведения может потребоваться обновление ПО.
- Владельцам несовместимого железа просьба не беспокоить, есть альтернативные релизы.

Трейлер

YouTube

Медиаинфо

General
Unique ID : 282530409112147463081525116099692249952 (0xD48D60A48E03A67F288842B24902C360)
Complete name : d:HEVCLupin the 3rdLupin.the.3rd.The.Castle.of.Cagliostro.1979.1080p_HEVCCLUB.mkv
Format : Matroska
Format version : Version 4
File size : 2.59 GiB
Duration : 1 h 39 min
Overall bit rate : 3 733 kb/s
Movie name : Lupin the 3rd: The Castle of Cagliostro (1979) - HEVCCLUB
Encoded date : UTC 2019-04-23 18:20:40
Writing application : mkvmerge v33.1.0 ('Primrose') 64-bit
Writing library : libebml v1.3.7 + libmatroska v1.5.0
Cover : Yes
Attachments : cover.jpg
Video
ID : 1
Format : HEVC
Format/Info : High Efficiency Video Coding
Format profile : Main 10@L4.1@High
Codec ID : V_MPEGH/ISO/HEVC
Duration : 1 h 39 min
Bit rate : 3 063 kb/s
Width : 1 920 pixels
Height : 1 040 pixels
Display aspect ratio : 1.85:1
Frame rate mode : Constant
Frame rate : 23.976 (24000/1001) FPS
Color space : YUV
Chroma subsampling : 4:2:0
Bit depth : 10 bits
Bits/(Pixel*Frame) : 0.064
Stream size : 2.13 GiB (82%)
Title : HEVCCLUB
Writing library : x265 3.0_Au+14-c7e5878bdd31:[Windows][GCC 8.3.0][64 bit] 10bit
Encoding settings : cpuid=1111039 / frame-threads=3 / numa-pools=8 / wpp / no-pmode / no-pme / no-psnr / no-ssim / log-level=2 / input-csp=1 / input-res=1920x1040 / interlace=0 / total-frames=0 / level-idc=41 / high-tier=1 / uhd-bd=0 / ref=5 / no-allow-non-conformance / no-repeat-headers / annexb / no-aud / no-hrd / info / hash=0 / no-temporal-layers / open-gop / min-keyint=23 / keyint=250 / gop-lookahead=0 / bframes=10 / b-adapt=2 / b-pyramid / bframe-bias=0 / rc-lookahead=60 / lookahead-slices=3 / scenecut=40 / radl=0 / no-splice / no-intra-refresh / ctu=64 / min-cu-size=8 / no-rect / no-amp / max-tu-size=32 / tu-inter-depth=3 / tu-intra-depth=3 / limit-tu=0 / rdoq-level=1 / dynamic-rd=2.00 / no-ssim-rd / signhide / no-tskip / nr-intra=0 / nr-inter=0 / no-constrained-intra / no-strong-intra-smoothing / max-merge=2 / limit-refs=0 / no-limit-modes / me=2 / subme=5 / merange=57 / temporal-mvp / weightp / weightb / no-analyze-src-pics / deblock=-2:-2 / no-sao / no-sao-non-deblock / rd=3 / no-early-skip / no-rskip / no-fast-intra / no-tskip-fast / no-cu-lossless / no-b-intra / no-splitrd-skip / rdpenalty=0 / psy-rd=1.75 / psy-rdoq=2.50 / no-rd-refine / no-lossless / cbqpoffs=0 / crqpoffs=0 / rc=crf / crf=22.0 / qcomp=0.80 / qpstep=4 / stats-write=0 / stats-read=0 / vbv-maxrate=50000 / vbv-bufsize=50000 / vbv-init=0.9 / crf-max=0.0 / crf-min=0.0 / ipratio=1.40 / pbratio=1.10 / aq-mode=2 / aq-strength=0.20 / cutree / zone-count=0 / no-strict-cbr / qg-size=32 / no-rc-grain / qpmax=69 / qpmin=0 / no-const-vbv / sar=1 / overscan=0 / videoformat=5 / range=0 / colorprim=2 / transfer=2 / colormatrix=2 / chromaloc=0 / display-window=0 / max-cll=0,0 / min-luma=0 / max-luma=1023 / log2-max-poc-lsb=8 / vui-timing-info / vui-hrd-info / slices=1 / opt-qp-pps / opt-ref-list-length-pps / no-multi-pass-opt-rps / scenecut-bias=0.05 / no-opt-cu-delta-qp / aq-motion / no-hdr / no-hdr-opt / no-dhdr10-opt / no-idr-recovery-sei / analysis-reuse-level=5 / scale-factor=0 / refine-intra=0 / refine-inter=0 / refine-mv=0 / refine-ctu-distortion=0 / no-limit-sao / ctu-info=0 / no-lowpass-dct / refine-analysis-type=0 / copy-pic=1 / max-ausize-factor=1.0 / no-dynamic-refine / no-single-sei / no-hevc-aq / no-svt / qp-adaptation-range=1.00
Default : Yes
Forced : Yes
Audio #1
ID : 2
Format : AC-3
Format/Info : Audio Coding 3
Commercial name : Dolby Digital
Codec ID : A_AC3
Duration : 1 h 39 min
Bit rate mode : Constant
Bit rate : 192 kb/s
Channel(s) : 2 channels
Channel layout : L R
Sampling rate : 48.0 kHz
Frame rate : 31.250 FPS (1536 SPF)
Bit depth : 16 bits
Compression mode : Lossy
Stream size : 137 MiB (5%)
Title : Сонотек/Ruscico
Language : Russian
Service kind : Complete Main
Default : Yes
Forced : No
Audio #2
ID : 3
Format : AC-3
Format/Info : Audio Coding 3
Commercial name : Dolby Digital
Codec ID : A_AC3
Duration : 1 h 39 min
Bit rate mode : Constant
Bit rate : 448 kb/s
Channel(s) : 6 channels
Channel layout : L R C LFE Ls Rs
Sampling rate : 48.0 kHz
Frame rate : 31.250 FPS (1536 SPF)
Bit depth : 16 bits
Compression mode : Lossy
Stream size : 319 MiB (12%)
Title : Original
Language : Japanese
Service kind : Complete Main
Default : No
Forced : No
Text #1
ID : 4
Format : PGS
Muxing mode : zlib
Codec ID : S_HDMV/PGS
Codec ID/Info : Picture based subtitle format used on BDs/HD-DVDs
Duration : 1 h 39 min
Bit rate : 18.7 kb/s
Count of elements : 1871
Stream size : 13.3 MiB (1%)
Title : Сонотек/Ruscico
Language : Russian
Default : No
Forced : No
Text #2
ID : 5
Format : PGS
Muxing mode : zlib
Codec ID : S_HDMV/PGS
Codec ID/Info : Picture based subtitle format used on BDs/HD-DVDs
Duration : 1 h 38 min
Bit rate : 25.3 kb/s
Count of elements : 1840
Stream size : 17.9 MiB (1%)
Language : English
Default : No
Forced : No
Text #3
ID : 6
Format : PGS
Muxing mode : zlib
Codec ID : S_HDMV/PGS
Codec ID/Info : Picture based subtitle format used on BDs/HD-DVDs
Duration : 1 h 38 min
Bit rate : 26.3 kb/s
Count of elements : 2476
Stream size : 18.5 MiB (1%)
Language : Japanese
Default : No
Forced : No

Отличия

http:///forum/viewtopic.php?t=3291586 - Моя раздача отличается значительно меньший размер при сохранении качества, а так же отсутствием навигации по главам.
http:///forum/viewtopic.php?t=3754373 - BDRip против BDRemux
http:///forum/viewtopic.php?t=5117796 - BDRip против Blu-ray

Скриншоты



[geo-torrent.biz]_t_5724769.torrent
Torrent: Registered ·  [ 2019-04-29 15:23 ] ·  d285155994ef0afc9f8369d63b9776f197c2a1fd

13 KB

Status: checked
Completed: 0 times
Size: 2.59 GB
Rating: 
(Votes: 0)
Say thanks: 0  Thanks
Похожие темы
[Profile]    [PM]
Display posts from previous:    
Reply to topic

The time now is: Today 11:20

All times are GMT + 7 Hours



You cannot post new topics in this forum
You cannot reply to topics in this forum
You cannot edit your posts in this forum
You cannot delete your posts in this forum
You cannot vote in polls in this forum
You cannot attach files in this forum
You can download files in this forum