(Progressive Rock, Hard Rock, Psychedelic Rock, Glam Rock) [CD] Argent - Collection Albums 1971-1975 (7CD), FLAC (image+.cue), lossless

Reply to topic
DL-List and Torrent activity [Update пиров]
Size:  1.99 GB   |    Registered:  6 months 29 days   |    Completed:  0 times

Seeder not seen: Never

 
   
 
 
 
Author Message

Roni

Post 17-Apr-2019 19:09

[Quote]

Argent - Collection Albums 1971-1975
Жанр: Progressive Rock, Hard Rock, Psychedelic Rock, Glam Rock
Носитель: CD
Страна исполнителя (группы): UK
Аудиокодек: FLAC (*.flac)
Тип рипа: image+.cue
Битрейт аудио: lossless
Продолжительность: 04:50:51
Источник (релизер): смотрите Благодарности
Наличие сканов в содержимом раздачи: да

Благодарности

Огромное спасибо за предоставленную информацию:
Alexharvey:
1970 - Argent & 1971 - Ring of Hands 2CD (BGOCD480 UK 2000)
1972 - All Together Now (Esoteric Records EU 2012)
1973 - In Deep & 1974 - Nexus 2CD (Edsel Records MEDCD 759 UK 2005)
1973 - In Deep (Talking Elephant TECD241 EU 2014)

[url=profile.php?mode=viewprofile&u=13942259]Sket4er[/url]:
1975 - Circus (Talking Elephant TECD279 EU 2015)
Studio Albums:

1970 - Argent & 1971 - Ring of Hands 2CD (BGOCD480 UK 2000) 01:23:06

CD1 - Argent (1970) 00:40:28

01. Like Honey
02. Liar (Russ Ballard)
03. Be Free
04. Schoolgirl (Russ Ballard)
05. Dance In The Smoke
06. Lonely Hard Road (Russ Ballard)
07. The Feeling's Inside
08. Freefall
09. Stepping Stone
10. Bring You Joy
Songs written by Rod Argent and Chris White except as noted.
Russ Ballard – guitar, lead (2-4,6,9,10) and backing vocals, piano (6)
Rod Argent – organ, backing and lead (1,5,7,8) vocals, electric and acoustic pianos
Jim Rodford – bass, backing vocals
Robert Henrit – drums, percussion

Лог создания рипа

Exact Audio Copy V1.3 from 2. September 2016
EAC extraction logfile from 21. January 2019, 23:05
Argent / Argent
Used drive : TSSTcorpCDDVDW TS-L633B Adapter: 1 ID: 0
Read mode : SecureUtilize accurate stream : YesDefeat audio cache : YesMake use of C2 pointers : No
Read offset correction : 6Overread into Lead-In and Lead-Out : NoFill up missing offset samples with silence : YesDelete leading and trailing silent blocks : NoNull samples used in CRC calculations : YesUsed interface : Native Win32 interface for Win NT & 2000
Used output format : Internal WAV RoutinesSample format : 44.100 Hz; 16 Bit; Stereo
TOC of the extracted CD
Track | Start | Length | Start sector | End sector --------------------------------------------------------- 1 | 0:00.00 | 3:14.55 | 0 | 14604 2 | 3:14.55 | 3:14.22 | 14605 | 29176 3 | 6:29.02 | 3:51.53 | 29177 | 46554 4 | 10:20.55 | 3:21.42 | 46555 | 61671 5 | 13:42.22 | 6:18.50 | 61672 | 90071 6 | 20:00.72 | 4:24.20 | 90072 | 109891 7 | 24:25.17 | 3:50.73 | 109892 | 127214 8 | 28:16.15 | 3:20.52 | 127215 | 142266 9 | 31:36.67 | 4:39.42 | 142267 | 163233 10 | 36:16.34 | 4:11.16 | 163234 | 182074
Range status and errors
Selected range
Filename F:\Alexharvey\Argent - Argent.wav
Peak level 98.8 % Extraction speed 2.6 X Range quality 100.0 % Test CRC 88872791 Copy CRC 88872791 Copy OK
No errors occurred
AccurateRip summary
Track 1 accurately ripped (confidence 4) [E671C1DE] (AR v2)Track 2 accurately ripped (confidence 4) [4ACAD28B] (AR v2)Track 3 accurately ripped (confidence 4) [895076D3] (AR v2)Track 4 accurately ripped (confidence 4) [C8025F5A] (AR v2)Track 5 accurately ripped (confidence 4) [BECFE127] (AR v2)Track 6 accurately ripped (confidence 4) [A5D13779] (AR v2)Track 7 accurately ripped (confidence 4) [A837FDD7] (AR v2)Track 8 accurately ripped (confidence 4) [74A4C373] (AR v2)Track 9 accurately ripped (confidence 4) [4ABE7CD5] (AR v2)Track 10 accurately ripped (confidence 4) [840CA575] (AR v2)
All tracks accurately ripped
End of status report
---- CUETools DB Plugin V2.1.6
[CTDB TOCID: vPQNqIl8YAg3QWthKVoEI8IwsgI-] foundSubmit result: vPQNqIl8YAg3QWthKVoEI8IwsgI- has been confirmedTrack | CTDB Status 1 | (21/21) Accurately ripped 2 | (21/21) Accurately ripped 3 | (21/21) Accurately ripped 4 | (21/21) Accurately ripped 5 | (21/21) Accurately ripped 6 | (21/21) Accurately ripped 7 | (21/21) Accurately ripped 8 | (21/21) Accurately ripped 9 | (21/21) Accurately ripped 10 | (21/21) Accurately ripped
==== Log checksum E8A236338C08CDA97F80CFF3B30A76E90C5618561895AF3FF5DEFC12BD6F4178 ====

Содержание индексной карты (.CUE)

REM GENRE RockREM DATE 1970REM DISCID 92097B0AREM COMMENT "ExactAudioCopy v1.3"PERFORMER "Argent"TITLE "Argent"REM COMPOSER ""FILE "Argent - Argent.flac" WAVE TRACK 01 AUDIO TITLE "Like Honey" PERFORMER "Argent" REM COMPOSER "" INDEX 01 00:00:00 TRACK 02 AUDIO TITLE "Liar" PERFORMER "Argent" REM COMPOSER "" INDEX 01 03:14:55 TRACK 03 AUDIO TITLE "Be Free" PERFORMER "Argent" REM COMPOSER "" INDEX 01 06:29:02 TRACK 04 AUDIO TITLE "Schoolgirl" PERFORMER "Argent" REM COMPOSER "" INDEX 01 10:20:55 TRACK 05 AUDIO TITLE "Dance In The Smoke" PERFORMER "Argent" REM COMPOSER "" INDEX 01 13:42:22 TRACK 06 AUDIO TITLE "Lonely Hard Road" PERFORMER "Argent" REM COMPOSER "" INDEX 01 20:00:72 TRACK 07 AUDIO TITLE "The Feeling's Inside" PERFORMER "Argent" REM COMPOSER "" INDEX 01 24:25:17 TRACK 08 AUDIO TITLE "Freefall" PERFORMER "Argent" REM COMPOSER "" INDEX 01 28:16:15 TRACK 09 AUDIO TITLE "Stepping Stone" PERFORMER "Argent" REM COMPOSER "" INDEX 01 31:36:67 TRACK 10 AUDIO TITLE "Bring You Joy" PERFORMER "Argent" REM COMPOSER "" INDEX 01 36:16:34

Лог проверки качества

-----------------------
DON'T MODIFY THIS FILE
-----------------------
PERFORMER: auCDtect Task Manager, ver. 1.5.1RC4 build 1.5.1.5Copyright (c) 2008-2010 y-soft. All rights reservedhttp://y-soft.org
ANALYZER: auCDtect: CD records authenticity detector, version 0.8.2Copyright (c) 2004 Oleg Berngardt. All rights reserved.Copyright (c) 2004 Alexander Djourik. All rights reserved.
FILE: Argent - Argent.flac Size: 266149002 Hash: 3013CBD30FBABBA8D65F8B010AC5CBE1 Accuracy: -m0 Conclusion: CDDA 100% Signature: 90B07F5C1B97FBC555D07E50CECE0168E7BC1C0C

CUETools log

[CUETools log; Date: 22.01.2019 10:08:14; Version: 2.1.6][CTDB TOCID: vPQNqIl8YAg3QWthKVoEI8IwsgI-] found.Track | CTDB Status 1 | (22/22) Accurately ripped 2 | (22/22) Accurately ripped 3 | (22/22) Accurately ripped 4 | (22/22) Accurately ripped 5 | (22/22) Accurately ripped 6 | (22/22) Accurately ripped 7 | (22/22) Accurately ripped 8 | (22/22) Accurately ripped 9 | (22/22) Accurately ripped 10 | (22/22) Accurately ripped[AccurateRip ID: 000ec06c-0077d8ce-92097b0a] found.Track [ CRC | V2 ] Status 01 [f0fe0cab|e671c1de] (00+04/17) Accurately ripped 02 [2da962f2|4acad28b] (00+04/19) Accurately ripped 03 [ae5c2216|895076d3] (00+04/17) Accurately ripped 04 [f2128763|c8025f5a] (00+04/17) Accurately ripped 05 [9d2ceaf5|becfe127] (00+04/17) Accurately ripped 06 [ac7db410|a5d13779] (00+04/17) Accurately ripped 07 [d897e5c3|a837fdd7] (00+04/17) Accurately ripped 08 [017bdf32|74a4c373] (00+04/17) Accurately ripped 09 [406222a8|4abe7cd5] (00+04/17) Accurately ripped 10 [278f077f|840ca575] (00+04/17) Accurately rippedOffsetted by 6: 01 [05e6eafb] (00/17) No match (V2 was not tested) 02 [abcfab44] (00/19) No match (V2 was not tested) 03 [3ddce13c] (00/17) No match (V2 was not tested) 04 [edad0e9f] (00/17) No match (V2 was not tested) 05 [6d0b8d2d] (00/17) No match (V2 was not tested) 06 [39822c0a] (00/17) No match (V2 was not tested) 07 [4e888c6b] (00/17) No match (V2 was not tested) 08 [e30dbf90] (00/17) No match (V2 was not tested) 09 [5b662a11] (00/17) No match (V2 was not tested) 10 [f07b0a9c] (00/17) No match (V2 was not tested)Offsetted by 30: 01 [a357ec2a] (00/17) No match 02 [a23ee011] (00/19) No match (V2 was not tested) 03 [7bdfddd4] (00/17) No match 04 [fa1de1ba] (00/17) No match 05 [c03016de] (00/17) No match 06 [6d940bf2] (00/17) No match 07 [a62d8d63] (00/17) No match 08 [685a40d0] (00/17) No match 09 [d9b498ef] (00/17) No match 10 [cb1ad156] (00/17) No matchOffsetted by 1458: 01 [b6308c9f] (00/17) No match (V2 was not tested) 02 [d0e51a18] (00/19) No match (V2 was not tested) 03 [e5919328] (00/17) No match (V2 was not tested) 04 [344770a3] (00/17) No match (V2 was not tested) 05 [69987245] (00/17) No match (V2 was not tested) 06 [87bb965e] (00/17) No match (V2 was not tested) 07 [a7339b9d] (00/17) No match (V2 was not tested) 08 [befc665a] (00/17) No match (V2 was not tested) 09 [d5b6dc6e] (00/17) No match (V2 was not tested) 10 [c5684d27] (00/17) No match (V2 was not tested)
Track Peak [ CRC32 ] [W/O NULL] [ LOG ] -- 98,8 [88872791] [E6CF5AAB] CRC32 01 98,8 [C4FDEFDD] [B56429A5] 02 98,8 [541D1CBB] [0F386AF3] 03 88,1 [222C4787] [8717712C] 04 98,8 [ABB65FCC] [B4A4C24E] 05 98,8 [E97D9A91] [91A563AC] 06 98,8 [F374B33C] [1DD5BC6C] 07 83,1 [BF65C7BB] [80198790] 08 98,8 [9F610402] [CF16614B] 09 98,8 [C0D4914A] [82394774] 10 98,8 [0DE10800] [74E24A9E]

Замер динамического диапазона

foobar2000 1.4.1 / Dynamic Range Meter 1.1.1log date: 2019-01-22 10:02:39
--------------------------------------------------------------------------------Analyzed: Argent / Argent--------------------------------------------------------------------------------
DR Peak RMS Duration Track--------------------------------------------------------------------------------DR11 -0.10 dB -14.93 dB 3:15 01-Like HoneyDR12 -0.10 dB -16.34 dB 3:14 02-LiarDR11 -1.10 dB -15.08 dB 3:52 03-Be FreeDR11 -0.10 dB -14.32 dB 3:22 04-SchoolgirlDR12 -0.10 dB -14.73 dB 6:19 05-Dance In The SmokeDR12 -0.10 dB -13.87 dB 4:24 06-Lonely Hard RoadDR11 -1.60 dB -16.63 dB 3:51 07-The Feeling's InsideDR10 -0.10 dB -13.31 dB 3:21 08-FreefallDR12 -0.10 dB -15.94 dB 4:40 09-Stepping StoneDR11 -0.10 dB -15.84 dB 4:11 10-Bring You Joy--------------------------------------------------------------------------------
Number of tracks: 10Official DR value: DR11
Samplerate: 44100 HzChannels: 2Bits per sample: 16Bitrate: 877 kbpsCodec: FLAC================================================================================

CD2 - Ring Of Hands (1971) 00:42:39

01. Celebration
02. Sweet Mary
03. Cast Your Spell Uranus (Russ Ballard)
04. Lothlorien
05. Chained (Russ Ballard)
06. Rejoice
07. Pleasure
08. Sleep Won't Help Me
09. Where Are We Going Wrong (Russ Ballard)
Songs written by Rod Argent and Chris White except as noted.
Rod Argent – organ, electric piano, lead (1,2,6,7) and backing vocals
Russ Ballard – guitar, lead (1-5,8,9) and backing vocals, piano (3)
Jim Rodford – bass guitar, backing vocals, guitar
Robert Henrit – drums, percussion

Лог создания рипа

Exact Audio Copy V1.3 from 2. September 2016
EAC extraction logfile from 22. January 2019, 9:25
Argent / Ring Of Hands
Used drive : TSSTcorpCDDVDW TS-L633B Adapter: 1 ID: 0
Read mode : SecureUtilize accurate stream : YesDefeat audio cache : YesMake use of C2 pointers : No
Read offset correction : 6Overread into Lead-In and Lead-Out : NoFill up missing offset samples with silence : YesDelete leading and trailing silent blocks : NoNull samples used in CRC calculations : YesUsed interface : Native Win32 interface for Win NT & 2000
Used output format : Internal WAV RoutinesSample format : 44.100 Hz; 16 Bit; Stereo
TOC of the extracted CD
Track | Start | Length | Start sector | End sector --------------------------------------------------------- 1 | 0:00.00 | 2:54.42 | 0 | 13091 2 | 2:54.42 | 4:05.38 | 13092 | 31504 3 | 7:00.05 | 4:31.02 | 31505 | 51831 4 | 11:31.07 | 7:49.65 | 51832 | 87071 5 | 19:20.72 | 5:19.20 | 87072 | 111016 6 | 24:40.17 | 3:45.60 | 111017 | 127951 7 | 28:26.02 | 4:52.03 | 127952 | 149854 8 | 33:18.05 | 5:10.40 | 149855 | 173144 9 | 38:28.45 | 4:09.72 | 173145 | 191891
Range status and errors
Selected range
Filename F:\Alexharvey\Argent - Ring Of Hands.wav
Peak level 100.0 % Extraction speed 2.6 X Range quality 100.0 % Test CRC B7756B09 Copy CRC B7756B09 Copy OK
No errors occurred
AccurateRip summary
Track 1 accurately ripped (confidence 4) [8CF9026E] (AR v2)Track 2 accurately ripped (confidence 4) [DDD86901] (AR v2)Track 3 accurately ripped (confidence 4) [D3754CEA] (AR v2)Track 4 accurately ripped (confidence 4) [3C07F5F4] (AR v2)Track 5 accurately ripped (confidence 4) [A4EBA874] (AR v2)Track 6 accurately ripped (confidence 4) [517A265A] (AR v2)Track 7 accurately ripped (confidence 4) [F8549F84] (AR v2)Track 8 accurately ripped (confidence 4) [567AAFA5] (AR v2)Track 9 accurately ripped (confidence 4) [8ACBD071] (AR v2)
All tracks accurately ripped
End of status report
---- CUETools DB Plugin V2.1.6
[CTDB TOCID: XaQ2z3geVKSpoVcBb88.GWLmo5A-] foundSubmit result: XaQ2z3geVKSpoVcBb88.GWLmo5A- has been confirmedTrack | CTDB Status 1 | (21/21) Accurately ripped 2 | (21/21) Accurately ripped 3 | (21/21) Accurately ripped 4 | (21/21) Accurately ripped 5 | (21/21) Accurately ripped 6 | (21/21) Accurately ripped 7 | (21/21) Accurately ripped 8 | (21/21) Accurately ripped 9 | (21/21) Accurately ripped
==== Log checksum E7A911E32AB0AC946BC92B4ADE16EF2F5D3F0D342DC8BB2E3728222730894759 ====

Содержание индексной карты (.CUE)

REM GENRE RockREM DATE 1971REM DISCID 5B09FE09REM COMMENT "ExactAudioCopy v1.3"PERFORMER "Argent"TITLE "Ring Of Hands"REM COMPOSER ""FILE "Argent - Ring Of Hands.flac" WAVE TRACK 01 AUDIO TITLE "Celebration" PERFORMER "Argent" REM COMPOSER "" INDEX 01 00:00:00 TRACK 02 AUDIO TITLE "Sweet Mary" PERFORMER "Argent" REM COMPOSER "" INDEX 01 02:54:42 TRACK 03 AUDIO TITLE "Cast Your Spell Uranus" PERFORMER "Argent" REM COMPOSER "" INDEX 01 07:00:05 TRACK 04 AUDIO TITLE "Lothlorien" PERFORMER "Argent" REM COMPOSER "" INDEX 01 11:31:07 TRACK 05 AUDIO TITLE "Chained" PERFORMER "Argent" REM COMPOSER "" INDEX 01 19:20:72 TRACK 06 AUDIO TITLE "Rejoice" PERFORMER "Argent" REM COMPOSER "" INDEX 01 24:40:17 TRACK 07 AUDIO TITLE "Pleasure" PERFORMER "Argent" REM COMPOSER "" INDEX 01 28:26:02 TRACK 08 AUDIO TITLE "Sleep Won't Help Me" PERFORMER "Argent" REM COMPOSER "" INDEX 01 33:18:05 TRACK 09 AUDIO TITLE "Where Are We Going Wrong" PERFORMER "Argent" REM COMPOSER "" INDEX 01 38:28:45

Лог проверки качества

-----------------------
DON'T MODIFY THIS FILE
-----------------------
PERFORMER: auCDtect Task Manager, ver. 1.5.1RC4 build 1.5.1.5Copyright (c) 2008-2010 y-soft. All rights reservedhttp://y-soft.org
ANALYZER: auCDtect: CD records authenticity detector, version 0.8.2Copyright (c) 2004 Oleg Berngardt. All rights reserved.Copyright (c) 2004 Alexander Djourik. All rights reserved.
FILE: Argent - Ring Of Hands.flac Size: 270720409 Hash: 6AD501D9180EECB4DDBF31548940F099 Accuracy: -m0 Conclusion: CDDA 100% Signature: A8A4DF6612ADE7747ED5B149A839CC58D27233B9

CUETools log

[CUETools log; Date: 22.01.2019 10:25:43; Version: 2.1.6][CTDB TOCID: XaQ2z3geVKSpoVcBb88.GWLmo5A-] found.Track | CTDB Status 1 | (22/22) Accurately ripped 2 | (22/22) Accurately ripped 3 | (22/22) Accurately ripped 4 | (22/22) Accurately ripped 5 | (22/22) Accurately ripped 6 | (22/22) Accurately ripped 7 | (22/22) Accurately ripped 8 | (22/22) Accurately ripped 9 | (22/22) Accurately ripped[AccurateRip ID: 000e4d92-006ad483-5b09fe09] found.Track [ CRC | V2 ] Status 01 [2bd76a7d|8cf9026e] (00+04/19) Accurately ripped 02 [39da85fd|ddd86901] (00+04/19) Accurately ripped 03 [37967589|d3754cea] (00+04/19) Accurately ripped 04 [d63f0fae|3c07f5f4] (00+04/19) Accurately ripped 05 [aab58315|a4eba874] (00+04/19) Accurately ripped 06 [535d22ad|517a265a] (00+04/19) Accurately ripped 07 [64fbf9a7|f8549f84] (00+04/19) Accurately ripped 08 [31e83a6d|567aafa5] (00+04/19) Accurately ripped 09 [d97644a1|8acbd071] (00+04/19) Accurately rippedOffsetted by 1458: 01 [69cca99b] (02/19) Accurately ripped 02 [37741a79] (02/19) Accurately ripped 03 [03f15bc5] (02/19) Accurately ripped 04 [8fb2347e] (02/19) Accurately ripped 05 [1ba5a05b] (02/19) Accurately ripped 06 [eb98138b] (02/19) Accurately ripped 07 [07a56de7] (02/19) Accurately ripped 08 [77bc809d] (02/19) Accurately ripped 09 [623171ff] (02/19) Accurately rippedOffsetted by 6: 01 [2f41c667] (00/19) No match (V2 was not tested) 02 [9cdf5e91] (00/19) No match (V2 was not tested) 03 [0a13255d] (00/19) No match (V2 was not tested) 04 [bcac0b9e] (00/19) No match (V2 was not tested) 05 [18bcd237] (00/19) No match (V2 was not tested) 06 [76c175d7] (00/19) No match (V2 was not tested) 07 [8dafc467] (00/19) No match (V2 was not tested) 08 [a3f8e77d] (00/19) No match (V2 was not tested) 09 [bd94894b] (00/19) No match (V2 was not tested)
Track Peak [ CRC32 ] [W/O NULL] [ LOG ] -- 100,0 [B7756B09] [3F80CACE] CRC32 01 100,0 [B5A55E1D] [0B67A57E] 02 100,0 [3C6D9F9B] [739C4356] 03 99,9 [48BE008D] [E3B9BC37] 04 99,9 [14E9EA46] [819411C7] 05 99,9 [0DB5DFE5] [38CC3DA7] 06 99,9 [EF33ED2C] [7FD1017B] 07 99,9 [6D3A80B5] [C35CF5A3] 08 99,9 [285E4667] [91B2256F] 09 99,9 [4B18E6AD] [2E3CF413]

Замер динамического диапазона

foobar2000 1.4.1 / Dynamic Range Meter 1.1.1log date: 2019-01-22 10:13:23
--------------------------------------------------------------------------------Analyzed: Argent / Ring Of Hands--------------------------------------------------------------------------------
DR Peak RMS Duration Track--------------------------------------------------------------------------------DR11 0.00 dB -12.99 dB 2:55 01-CelebrationDR11 0.00 dB -14.82 dB 4:06 02-Sweet MaryDR10 0.00 dB -13.93 dB 4:31 03-Cast Your Spell UranusDR11 -0.01 dB -13.40 dB 7:50 04-LothlorienDR11 0.00 dB -12.64 dB 5:19 05-ChainedDR10 0.00 dB -12.61 dB 3:46 06-RejoiceDR10 0.00 dB -12.48 dB 4:52 07-PleasureDR10 0.00 dB -13.63 dB 5:11 08-Sleep Won't Help MeDR10 0.00 dB -12.46 dB 4:10 09-Where Are We Going Wrong--------------------------------------------------------------------------------
Number of tracks: 9Official DR value: DR11
Samplerate: 44100 HzChannels: 2Bits per sample: 16Bitrate: 846 kbpsCodec: FLAC================================================================================

1972 - All Together Now (Esoteric Records EU 2012) 00:33:55

01. Hold Your Head Up
02. Keep On Rollin'
03. Tragedy (Russ Ballard)
04. I Am The Dance Of Ages
05. Be My Lover, Be My Friend
06. He's A Dynamo (Russ Ballard)
07. Pure Love:
I. Fantasia
II. Prelude
III. Pure Love
IV. Finale
Bonus Track:
08. Closed To Heaven (Russ Ballard)
Songs written by Rod Argent and Chris White except as noted.
Rod Argent – organ, electric piano, vocals
Russ Ballard – guitar, piano (on track 3), vocals
Jim Rodford – bass guitar, guitar, vocals
Robert Henrit – drums, percussion

Лог создания рипа

Exact Audio Copy V1.3 from 2. September 2016
EAC extraction logfile from 23. January 2019, 18:28
Argent / All Together Now
Used drive : TSSTcorpCDDVDW TS-L633B Adapter: 1 ID: 0
Read mode : SecureUtilize accurate stream : YesDefeat audio cache : YesMake use of C2 pointers : No
Read offset correction : 6Overread into Lead-In and Lead-Out : NoFill up missing offset samples with silence : YesDelete leading and trailing silent blocks : NoNull samples used in CRC calculations : YesUsed interface : Native Win32 interface for Win NT & 2000
Used output format : Internal WAV RoutinesSample format : 44.100 Hz; 16 Bit; Stereo
TOC of the extracted CD
Track | Start | Length | Start sector | End sector --------------------------------------------------------- 1 | 0:00.00 | 6:19.18 | 0 | 28442 2 | 6:19.18 | 4:29.36 | 28443 | 48653 3 | 10:48.54 | 4:49.37 | 48654 | 70365 4 | 15:38.16 | 3:46.60 | 70366 | 87375 5 | 19:25.01 | 5:20.48 | 87376 | 111423 6 | 24:45.49 | 3:49.07 | 111424 | 128605 7 | 28:34.56 | 13:10.07 | 128606 | 187862 8 | 41:44.63 | 3:30.16 | 187863 | 203628
Range status and errors
Selected range
Filename F:\Alexharvey\Argent - All Together Now.wav
Peak level 98.8 % Extraction speed 2.7 X Range quality 100.0 % Test CRC 9D5D866F Copy CRC 9D5D866F Copy OK
No errors occurred
AccurateRip summary
Track 1 accurately ripped (confidence 5) [0348B156] (AR v2)Track 2 accurately ripped (confidence 5) [605A3DC8] (AR v2)Track 3 accurately ripped (confidence 5) [77406833] (AR v2)Track 4 accurately ripped (confidence 5) [1E5887FB] (AR v2)Track 5 accurately ripped (confidence 5) [75529702] (AR v2)Track 6 accurately ripped (confidence 5) [A852CB58] (AR v2)Track 7 accurately ripped (confidence 5) [6C5B49D4] (AR v2)Track 8 accurately ripped (confidence 5) [CDFDA60A] (AR v2)
All tracks accurately ripped
End of status report
---- CUETools DB Plugin V2.1.6
[CTDB TOCID: 7NS__qQx8d5VaTW7jzojpYYbSw4-] foundSubmit result: already submittedTrack | CTDB Status 1 | (14/14) Accurately ripped 2 | (14/14) Accurately ripped 3 | (14/14) Accurately ripped 4 | (14/14) Accurately ripped 5 | (14/14) Accurately ripped 6 | (14/14) Accurately ripped 7 | (14/14) Accurately ripped 8 | (14/14) Accurately ripped
==== Log checksum EEDBB4DDE76ACDBDC808F42515C55F5E445857509468C08BEEC634734160F1D5 ====

Содержание индексной карты (.CUE)

REM GENRE RockREM DATE 1972REM DISCID 650A9B08REM COMMENT "ExactAudioCopy v1.3"PERFORMER "Argent"TITLE "All Together Now"REM COMPOSER ""FILE "Argent - All Together Now.wav" WAVE TRACK 01 AUDIO TITLE "Hold Your Head Up" PERFORMER "Argent" REM COMPOSER "" INDEX 01 00:00:00 TRACK 02 AUDIO TITLE "Keep On Rollin'" PERFORMER "Argent" REM COMPOSER "" INDEX 00 06:17:56 INDEX 01 06:19:18 TRACK 03 AUDIO TITLE "Tragedy" PERFORMER "Argent" REM COMPOSER "" INDEX 00 10:47:27 INDEX 01 10:48:54 TRACK 04 AUDIO TITLE "I Am The Dance Of Ages" PERFORMER "Argent" REM COMPOSER "" INDEX 00 15:36:52 INDEX 01 15:38:16 TRACK 05 AUDIO TITLE "Be My Lover, Be My Friend" PERFORMER "Argent" REM COMPOSER "" INDEX 00 19:23:46 INDEX 01 19:25:01 TRACK 06 AUDIO TITLE "He's A Dynamo" PERFORMER "Argent" REM COMPOSER "" INDEX 00 24:44:12 INDEX 01 24:45:49 TRACK 07 AUDIO TITLE "Pure Love: I. Fantasia II. Prelude III. Pure Love IV. Finale" PERFORMER "Argent" REM COMPOSER "" INDEX 00 28:33:13 INDEX 01 28:34:56 TRACK 08 AUDIO TITLE "Closer To Heaven" PERFORMER "Argent" REM COMPOSER "" INDEX 00 41:40:10 INDEX 01 41:44:63

Лог проверки качества

-----------------------
DON'T MODIFY THIS FILE
-----------------------
PERFORMER: auCDtect Task Manager, ver. 1.5.1RC4 build 1.5.1.5Copyright (c) 2008-2010 y-soft. All rights reservedhttp://y-soft.org
ANALYZER: auCDtect: CD records authenticity detector, version 0.8.2Copyright (c) 2004 Oleg Berngardt. All rights reserved.Copyright (c) 2004 Alexander Djourik. All rights reserved.
FILE: Argent - All Together Now.flac Size: 291781360 Hash: 8E1384FA5642D5F75E6CA0577C666651 Accuracy: -m0 Conclusion: CDDA 100% Signature: 27D3CDCAC3669BDC85FF7D17B2613C2328CDDB71

CUETools log

[CUETools log; Date: 23.01.2019 18:37:01; Version: 2.1.6][CTDB TOCID: 7NS__qQx8d5VaTW7jzojpYYbSw4-] found.Track | CTDB Status 1 | (14/14) Accurately ripped 2 | (14/14) Accurately ripped 3 | (14/14) Accurately ripped 4 | (14/14) Accurately ripped 5 | (14/14) Accurately ripped 6 | (14/14) Accurately ripped 7 | (14/14) Accurately ripped 8 | (14/14) Accurately ripped[AccurateRip ID: 000d3839-0058e408-650a9b08] found.Track [ CRC | V2 ] Status 01 [616ef0d6|0348b156] (00+05/10) Accurately ripped 02 [043a6c64|605a3dc8] (00+05/10) Accurately ripped 03 [607eba23|77406833] (00+05/10) Accurately ripped 04 [fc8d0817|1e5887fb] (00+05/10) Accurately ripped 05 [33c6ab9b|75529702] (00+05/10) Accurately ripped 06 [b5e21d63|a852cb58] (00+05/10) Accurately ripped 07 [bcc5d9dd|6c5b49d4] (00+05/10) Accurately ripped 08 [b14c0b75|cdfda60a] (00+05/10) Accurately rippedOffsetted by -6: 01 [f9c41a12] (00/10) No match (V2 was not tested) 02 [7d961218] (00/10) No match (V2 was not tested) 03 [48c16b37] (00/10) No match (V2 was not tested) 04 [d115d403] (00/10) No match (V2 was not tested) 05 [a9e271c9] (00/10) No match (V2 was not tested) 06 [828f6e7b] (00/10) No match (V2 was not tested) 07 [c104d885] (00/10) No match (V2 was not tested) 08 [01e5d895] (00/10) No match (V2 was not tested)
Track Peak [ CRC32 ] [W/O NULL] [ LOG ] -- 98,8 [9D5D866F] [728ADB24] CRC32 01 98,8 [DA99AECE] [A9B1288A] 02 98,8 [42988682] [CE9BB4DF] 03 98,8 [FA0FB4B1] [49E09269] 04 98,8 [263A5BDC] [7578722D] 05 98,8 [6D30668B] [CACD0A16] 06 98,8 [2FAF7238] [C71B70EB] 07 98,8 [9B6B4E4E] [41EAADCE] 08 98,8 [C7ED9027] [30AD3CB8]

Замер динамического диапазона

foobar2000 1.4.1 / Dynamic Range Meter 1.1.1log date: 2019-01-23 18:33:13
--------------------------------------------------------------------------------Analyzed: Argent / All Together Now--------------------------------------------------------------------------------
DR Peak RMS Duration Track--------------------------------------------------------------------------------DR11 -0.10 dB -13.75 dB 6:19 01-Hold Your Head UpDR10 -0.10 dB -12.44 dB 4:29 02-Keep On Rollin'DR10 -0.10 dB -12.65 dB 4:49 03-TragedyDR9 -0.10 dB -12.42 dB 3:47 04-I Am The Dance Of AgesDR10 -0.10 dB -11.94 dB 5:21 05-Be My Lover, Be My FriendDR9 -0.10 dB -10.70 dB 3:49 06-He's A DynamoDR9 -0.10 dB -11.93 dB 13:10 07-Pure Love: I. Fantasia II. Prelude III. Pure Love IV. FinaleDR10 -0.10 dB -12.99 dB 3:30 08-Closer To Heaven--------------------------------------------------------------------------------
Number of tracks: 8Official DR value: DR10
Samplerate: 44100 HzChannels: 2Bits per sample: 16Bitrate: 860 kbpsCodec: FLAC================================================================================

1973 - In Deep & 1974 - Nexus 2CD (Edsel Records MEDCD 759 UK 2005) 01:27:41

CD1 - In Deep (1973) 00:45:21

01. God Gave Rock & Roll to You (Russ Ballard)
02. It's Only Money Part I (Russ Ballard)
03. It's Only Money Part II (Russ Ballard)
04. Loosing Hold (Rod Argent, Chris White)
05. Be Glad (Rod Argent, Chris White)
06. Christmas For The Free (Rod Argent, Chris White)
07. Candles On The River (Rod Argent, Chris White)
08. Rosie (Russ Ballard)
Rod Argent – organ, electric piano, vocals; lead vocals on "Christmas for the Free"
Russ Ballard – guitar, vocals
Jim Rodford – bass guitar, guitar, vocals
Robert Henrit – drums, percussion
Derek Griffiths - guitar solo on "Christmas for the Free" (Ballard was taken ill in the studio)

Лог создания рипа

Exact Audio Copy V1.3 from 2. September 2016
EAC extraction logfile from 26. January 2019, 16:53
Argent / In Deep
Used drive : TSSTcorpCDDVDW TS-L633B Adapter: 1 ID: 0
Read mode : SecureUtilize accurate stream : YesDefeat audio cache : YesMake use of C2 pointers : No
Read offset correction : 6Overread into Lead-In and Lead-Out : NoFill up missing offset samples with silence : YesDelete leading and trailing silent blocks : NoNull samples used in CRC calculations : YesUsed interface : Native Win32 interface for Win NT & 2000
Used output format : Internal WAV RoutinesSample format : 44.100 Hz; 16 Bit; Stereo
TOC of the extracted CD
Track | Start | Length | Start sector | End sector --------------------------------------------------------- 1 | 0:00.00 | 6:46.65 | 0 | 30514 2 | 6:46.65 | 4:07.22 | 30515 | 49061 3 | 10:54.12 | 5:09.27 | 49062 | 72263 4 | 16:03.39 | 5:31.48 | 72264 | 97136 5 | 21:35.12 | 8:38.71 | 97137 | 136057 6 | 30:14.08 | 4:15.31 | 136058 | 155213 7 | 34:29.39 | 7:04.60 | 155214 | 187073 8 | 41:34.24 | 3:46.27 | 187074 | 204050
Range status and errors
Selected range
Filename F:\Alexharvey\Argent - In Deep.wav
Peak level 99.8 % Extraction speed 2.7 X Range quality 100.0 % Test CRC 7745B05F Copy CRC 7745B05F Copy OK
No errors occurred
AccurateRip summary
Track 1 accurately ripped (confidence 4) [B0F0A589] (AR v2)Track 2 accurately ripped (confidence 4) [F9C4C604] (AR v2)Track 3 accurately ripped (confidence 4) [BA0565A6] (AR v2)Track 4 accurately ripped (confidence 4) [3E8E0025] (AR v2)Track 5 accurately ripped (confidence 4) [579FB8C0] (AR v2)Track 6 accurately ripped (confidence 4) [6F2AB4AD] (AR v2)Track 7 accurately ripped (confidence 4) [DC2CC77C] (AR v2)Track 8 accurately ripped (confidence 4) [4AB4CC78] (AR v2)
All tracks accurately ripped
End of status report
---- CUETools DB Plugin V2.1.6
[CTDB TOCID: Rm4mS4eVBJ3wk7CP2N0awowCVRs-] foundSubmit result: Rm4mS4eVBJ3wk7CP2N0awowCVRs- has been confirmedTrack | CTDB Status 1 | (7/7) Accurately ripped 2 | (7/7) Accurately ripped 3 | (7/7) Accurately ripped 4 | (7/7) Accurately ripped 5 | (7/7) Accurately ripped 6 | (7/7) Accurately ripped 7 | (7/7) Accurately ripped 8 | (7/7) Accurately ripped
==== Log checksum 30F00985EE4491752E40A1714A38CC2DEA9F2112537B40089108A9AF19BD7AC5 ====

Содержание индексной карты (.CUE)

REM GENRE Art-RockREM DATE 1973REM DISCID 750AA008REM COMMENT "ExactAudioCopy v1.3"PERFORMER "Argent"TITLE "In Deep"REM COMPOSER ""FILE "Argent - In Deep.flac" WAVE TRACK 01 AUDIO TITLE "God Gave Rock & Roll to You" PERFORMER "Argent" REM COMPOSER "" INDEX 01 00:00:00 TRACK 02 AUDIO TITLE "It's Only Money Part 1" PERFORMER "Argent" REM COMPOSER "" INDEX 00 06:43:45 INDEX 01 06:46:65 TRACK 03 AUDIO TITLE "It's Only Money Part 2" PERFORMER "Argent" REM COMPOSER "" INDEX 00 10:51:02 INDEX 01 10:54:12 TRACK 04 AUDIO TITLE "Losing Hold" PERFORMER "Argent" REM COMPOSER "" INDEX 00 15:59:54 INDEX 01 16:03:39 TRACK 05 AUDIO TITLE "Be Glad" PERFORMER "Argent" REM COMPOSER "" INDEX 00 21:33:18 INDEX 01 21:35:12 TRACK 06 AUDIO TITLE "Christmas For The Free" PERFORMER "Argent" REM COMPOSER "" INDEX 00 30:13:48 INDEX 01 30:14:08 TRACK 07 AUDIO TITLE "Candles On The River" PERFORMER "Argent" REM COMPOSER "" INDEX 00 34:29:38 INDEX 01 34:29:39 TRACK 08 AUDIO TITLE "Rosie" PERFORMER "Argent" REM COMPOSER "" INDEX 00 41:30:39 INDEX 01 41:34:24

Лог проверки качества

-----------------------
DON'T MODIFY THIS FILE
-----------------------
PERFORMER: auCDtect Task Manager, ver. 1.5.1RC4 build 1.5.1.5Copyright (c) 2008-2010 y-soft. All rights reservedhttp://y-soft.org
ANALYZER: auCDtect: CD records authenticity detector, version 0.8.2Copyright (c) 2004 Oleg Berngardt. All rights reserved.Copyright (c) 2004 Alexander Djourik. All rights reserved.
FILE: Argent - In Deep.flac Size: 281110119 Hash: AFB1F4BEEDEA726040BD2F4D8FD92429 Accuracy: -m0 Conclusion: CDDA 100% Signature: 68930F5EA59F55DBB002E13FCB0FB7E0EE5AA03A

CUETools log

[CUETools log; Date: 26.01.2019 19:08:36; Version: 2.1.6][CTDB TOCID: Rm4mS4eVBJ3wk7CP2N0awowCVRs-] found.Track | CTDB Status 1 | (8/8) Accurately ripped 2 | (8/8) Accurately ripped 3 | (8/8) Accurately ripped 4 | (8/8) Accurately ripped 5 | (8/8) Accurately ripped 6 | (8/8) Accurately ripped 7 | (8/8) Accurately ripped 8 | (8/8) Accurately ripped[AccurateRip ID: 000e362f-005ee467-750aa008] found.Track [ CRC | V2 ] Status 01 [e967047f|b0f0a589] (03+04/11) Accurately ripped 02 [68e655c1|f9c4c604] (03+04/11) Accurately ripped 03 [2e58efe2|ba0565a6] (03+04/11) Accurately ripped 04 [0e9b5904|3e8e0025] (03+04/11) Accurately ripped 05 [4107be4e|579fb8c0] (03+04/11) Accurately ripped 06 [aaf3842b|6f2ab4ad] (03+04/11) Accurately ripped 07 [76445afc|dc2cc77c] (02+04/10) Accurately ripped 08 [420cbfa4|4ab4cc78] (03+04/11) Accurately rippedOffsetted by -664: 01 [7140e22f] (00/11) No match (V2 was not tested) 02 [c7d0d849] (00/11) No match (V2 was not tested) 03 [c5a9e1ba] (00/11) No match (V2 was not tested) 04 [4e21db94] (00/11) No match (V2 was not tested) 05 [4c3e4352] (00/11) No match (V2 was not tested) 06 [ae4fb147] (00/11) No match (V2 was not tested) 07 [a9d9dc0c] (00/10) No match (V2 was not tested) 08 [eafce254] (00/11) No match (V2 was not tested)
Track Peak [ CRC32 ] [W/O NULL] [ LOG ] -- 99,8 [7745B05F] [7868C1F5] CRC32 01 98,8 [95944351] [0EB90E11] 02 99,8 [2287EFD5] [F8BE3D90] 03 98,8 [8C6C49BC] [741706AC] 04 99,8 [94F496BB] [BFCF70A7] 05 98,8 [BC56B616] [D5220113] 06 98,8 [AFC43898] [12F5A3AE] 07 98,8 [EEADED69] [655A30BA] 08 98,8 [B7A06C54] [AA64880E]

Замер динамического диапазона

foobar2000 1.4.1 / Dynamic Range Meter 1.1.1log date: 2019-01-26 19:14:06
--------------------------------------------------------------------------------Analyzed: Argent / In Deep--------------------------------------------------------------------------------
DR Peak RMS Duration Track--------------------------------------------------------------------------------DR11 -0.10 dB -13.40 dB 6:47 01-God Gave Rock & Roll to YouDR11 -0.01 dB -12.64 dB 4:07 02-It's Only Money Part 1DR11 -0.10 dB -13.66 dB 5:09 03-It's Only Money Part 2DR9 -0.01 dB -11.76 dB 5:32 04-Losing HoldDR10 -0.10 dB -13.17 dB 8:39 05-Be GladDR12 -0.10 dB -15.58 dB 4:15 06-Christmas For The FreeDR11 -0.10 dB -13.30 dB 7:05 07-Candles On The RiverDR10 -0.10 dB -12.78 dB 3:46 08-Rosie--------------------------------------------------------------------------------
Number of tracks: 8Official DR value: DR11
Samplerate: 44100 HzChannels: 2Bits per sample: 16Bitrate: 826 kbpsCodec: FLAC================================================================================

CD2 - Nexus (1974) 00:45:20

01. The Coming Of Kohoutek
02. Once Around The Sun
03. Infinite Wanderer
04. Love (Russ Ballard)
05. Music From The Spheres
06. Thunder And Lightning (Russ Ballard)
07. Keeper Of The Flame
08. Man For All Reasons (Russ Ballard)
09. Gonna Meet My Maker (Russ Ballard)
Songs written by Rod Argent and Chris White except as noted.
Tom Scholz – electric guitars, lead guitar, acoustic guitars, clavinet, organ, bass guitar
Brad Delp – lead and harmony vocals, acoustic guitar
Sib Hashian – drums
Jim Masdea – drums on "Rock & Roll Band"
Barry Goudreau – rhythm guitars, lead guitars on "Foreplay" and "Longtime"
Fran Sheehan – bass guitar on "Foreplay"

Лог создания рипа

Exact Audio Copy V1.3 from 2. September 2016
EAC extraction logfile from 26. January 2019, 18:21
Argent / Nexus
Used drive : TSSTcorpCDDVDW TS-L633B Adapter: 1 ID: 0
Read mode : SecureUtilize accurate stream : YesDefeat audio cache : YesMake use of C2 pointers : No
Read offset correction : 6Overread into Lead-In and Lead-Out : NoFill up missing offset samples with silence : YesDelete leading and trailing silent blocks : NoNull samples used in CRC calculations : YesUsed interface : Native Win32 interface for Win NT & 2000
Used output format : Internal WAV RoutinesSample format : 44.100 Hz; 16 Bit; Stereo
TOC of the extracted CD
Track | Start | Length | Start sector | End sector --------------------------------------------------------- 1 | 0:00.00 | 3:03.00 | 0 | 13724 2 | 3:03.00 | 2:48.62 | 13725 | 26386 3 | 5:51.62 | 3:44.66 | 26387 | 43252 4 | 9:36.53 | 3:55.59 | 43253 | 60936 5 | 13:32.37 | 8:11.16 | 60937 | 97777 6 | 21:43.53 | 5:07.41 | 97778 | 120843 7 | 26:51.19 | 6:05.05 | 120844 | 148223 8 | 32:56.24 | 4:46.07 | 148224 | 169680 9 | 37:42.31 | 4:38.01 | 169681 | 190531
Range status and errors
Selected range
Filename F:\Alexharvey\Argent - Nexus.wav
Peak level 99.8 % Extraction speed 2.6 X Range quality 100.0 % Test CRC 2BE09D39 Copy CRC 2BE09D39 Copy OK
No errors occurred
AccurateRip summary
Track 1 accurately ripped (confidence 4) [8D82A9AD] (AR v2)Track 2 accurately ripped (confidence 4) [3925236C] (AR v2)Track 3 accurately ripped (confidence 4) [7FE2D983] (AR v2)Track 4 accurately ripped (confidence 4) [E1819560] (AR v2)Track 5 accurately ripped (confidence 4) [038180B0] (AR v2)Track 6 accurately ripped (confidence 4) [1509DA59] (AR v2)Track 7 accurately ripped (confidence 4) [0F6E02F7] (AR v2)Track 8 accurately ripped (confidence 4) [C6DEC12C] (AR v2)Track 9 accurately ripped (confidence 4) [FA4322CB] (AR v2)
All tracks accurately ripped
End of status report
---- CUETools DB Plugin V2.1.6
[CTDB TOCID: cTGkNYxEq_TbpebD_EwuSZL3AkM-] foundSubmit result: cTGkNYxEq_TbpebD_EwuSZL3AkM- has been confirmedTrack | CTDB Status 1 | (7/7) Accurately ripped 2 | (7/7) Accurately ripped 3 | (7/7) Accurately ripped 4 | (7/7) Accurately ripped 5 | (7/7) Accurately ripped 6 | (7/7) Accurately ripped 7 | (7/7) Accurately ripped 8 | (7/7) Accurately ripped 9 | (7/7) Accurately ripped
==== Log checksum 19640D9AF4B8EBCA3E5C20EE5F6F0DA5A3B7A692B7100CE8BD8889E9AAEEF8AE ====

Содержание индексной карты (.CUE)

REM GENRE "Melodic Rock"REM DATE 1974REM DISCID 7709EC09REM COMMENT "ExactAudioCopy v1.3"PERFORMER "Argent"TITLE "Nexus"REM COMPOSER ""FILE "Argent - Nexus.flac" WAVE TRACK 01 AUDIO TITLE "The Coming Of Kohoutek" PERFORMER "Argent" REM COMPOSER "" INDEX 01 00:00:00 TRACK 02 AUDIO TITLE "Once Around The Sun" PERFORMER "Argent" REM COMPOSER "" INDEX 01 03:03:00 TRACK 03 AUDIO TITLE "Infinite Wanderer" PERFORMER "Argent" REM COMPOSER "" INDEX 01 05:51:62 TRACK 04 AUDIO TITLE "Love" PERFORMER "Argent" REM COMPOSER "" INDEX 00 09:32:70 INDEX 01 09:36:53 TRACK 05 AUDIO TITLE "Music From The Spheres" PERFORMER "Argent" REM COMPOSER "" INDEX 00 13:28:54 INDEX 01 13:32:37 TRACK 06 AUDIO TITLE "Thunder And Lightning" PERFORMER "Argent" REM COMPOSER "" INDEX 00 21:39:70 INDEX 01 21:43:53 TRACK 07 AUDIO TITLE "Keeper Of The Flame" PERFORMER "Argent" REM COMPOSER "" INDEX 00 26:49:62 INDEX 01 26:51:19 TRACK 08 AUDIO TITLE "Man For All Reasons" PERFORMER "Argent" REM COMPOSER "" INDEX 00 32:52:41 INDEX 01 32:56:24 TRACK 09 AUDIO TITLE "Gonna Meet My Maker" PERFORMER "Argent" REM COMPOSER "" INDEX 00 37:39:04 INDEX 01 37:42:31

Лог проверки качества

-----------------------
DON'T MODIFY THIS FILE
-----------------------
PERFORMER: auCDtect Task Manager, ver. 1.5.1RC4 build 1.5.1.5Copyright (c) 2008-2010 y-soft. All rights reservedhttp://y-soft.org
ANALYZER: auCDtect: CD records authenticity detector, version 0.8.2Copyright (c) 2004 Oleg Berngardt. All rights reserved.Copyright (c) 2004 Alexander Djourik. All rights reserved.
FILE: Argent - Nexus.flac Size: 276521770 Hash: 74B12F92E7A64E49F02B9006E95E97E9 Accuracy: -m0 Conclusion: CDDA 100% Signature: 0998565A70704CD0603055D0A603E4BB3543945F

CUETools log

[CUETools log; Date: 26.01.2019 19:15:44; Version: 2.1.6][CTDB TOCID: cTGkNYxEq_TbpebD_EwuSZL3AkM-] found.Track | CTDB Status 1 | (8/8) Accurately ripped 2 | (8/8) Accurately ripped 3 | (8/8) Accurately ripped 4 | (8/8) Accurately ripped 5 | (8/8) Accurately ripped 6 | (8/8) Accurately ripped 7 | (8/8) Accurately ripped 8 | (8/8) Accurately ripped 9 | (8/8) Accurately ripped[AccurateRip ID: 000d4bc1-00653e76-7709ec09] found.Track [ CRC | V2 ] Status 01 [6b637874|8d82a9ad] (03+04/11) Accurately ripped 02 [f31146f3|3925236c] (03+04/11) Accurately ripped 03 [6b79bb13|7fe2d983] (03+04/11) Accurately ripped 04 [18e6b9f4|e1819560] (03+04/11) Accurately ripped 05 [e127a36c|038180b0] (03+04/11) Accurately ripped 06 [94058b69|1509da59] (03+04/11) Accurately ripped 07 [2aa4cb8f|0f6e02f7] (03+04/11) Accurately ripped 08 [e5bceecb|c6dec12c] (03+04/11) Accurately ripped 09 [51cd79c7|fa4322cb] (03+04/11) Accurately rippedOffsetted by -18: 01 [bf0b60be] (00/11) No match (V2 was not tested) 02 [1811a857] (00/11) No match (V2 was not tested) 03 [478d8345] (00/11) No match (V2 was not tested) 04 [571df486] (00/11) No match (V2 was not tested) 05 [b36ba91c] (00/11) No match (V2 was not tested) 06 [941e1e6b] (00/11) No match (V2 was not tested) 07 [05e1a1c5] (00/11) No match (V2 was not tested) 08 [b65bfc9f] (00/11) No match (V2 was not tested) 09 [895cbfb7] (00/11) No match (V2 was not tested)
Track Peak [ CRC32 ] [W/O NULL] [ LOG ] -- 99,8 [2BE09D39] [CB86F696] CRC32 01 98,8 [E163DD0E] [F909FFEA] 02 99,8 [6531FA07] [2DCDA83E] 03 99,8 [E98887BA] [180491BE] 04 98,8 [7BF77AFD] [165A4682] 05 99,8 [BFBCFC45] [AF2A1775] 06 99,8 [9497F702] [2FCB880B] 07 98,8 [B634564D] [0FE3EDA0] 08 98,9 [5BBBEFF2] [9B4D5A8F] 09 98,7 [FB14018E] [276D6780]

Замер динамического диапазона

foobar2000 1.4.1 / Dynamic Range Meter 1.1.1log date: 2019-01-26 19:13:36
--------------------------------------------------------------------------------Analyzed: Argent / Nexus--------------------------------------------------------------------------------
DR Peak RMS Duration Track--------------------------------------------------------------------------------DR10 -0.10 dB -12.21 dB 3:03 01-The Coming Of KohoutekDR8 -0.01 dB -13.06 dB 2:49 02-Once Around The SunDR8 -0.01 dB -10.30 dB 3:45 03-Infinite WandererDR9 -0.10 dB -13.07 dB 3:56 04-LoveDR9 -0.01 dB -11.85 dB 8:11 05-Music From The SpheresDR9 -0.01 dB -11.23 dB 5:08 06-Thunder And LightningDR10 -0.10 dB -12.65 dB 6:05 07-Keeper Of The FlameDR11 -0.09 dB -14.81 dB 4:46 08-Man For All ReasonsDR12 -0.11 dB -14.08 dB 4:38 09-Gonna Meet My Maker--------------------------------------------------------------------------------
Number of tracks: 9Official DR value: DR10
Samplerate: 44100 HzChannels: 2Bits per sample: 16Bitrate: 871 kbpsCodec: FLAC================================================================================

1973 - In Deep (Talking Elephant TECD241 EU 2014) 00:41:40

01. God Gave Rock & Roll to You (Russ Ballard)
02. It's Only Money Part I (Russ Ballard)
03. It's Only Money Part II (Russ Ballard)
04. Loosing Hold (Rod Argent, Chris White)
05. Be Glad (Rod Argent, Chris White)
06. Christmas For The Free (Rod Argent, Chris White)
07. Candles On The River (Rod Argent, Chris White)
08. Rosie (Russ Ballard)
Rod Argent – organ, electric piano, vocals; lead vocals on "Christmas for the Free"
Russ Ballard – guitar, vocals
Jim Rodford – bass guitar, guitar, vocals
Robert Henrit – drums, percussion
Derek Griffiths - guitar solo on "Christmas for the Free" (Russ Ballard was taken ill in the studio)

Лог создания рипа

Exact Audio Copy V1.3 from 2. September 2016
EAC extraction logfile from 24. January 2019, 21:48
Argent / In Deep
Used drive : TSSTcorpCDDVDW TS-L633B Adapter: 1 ID: 0
Read mode : SecureUtilize accurate stream : YesDefeat audio cache : YesMake use of C2 pointers : No
Read offset correction : 6Overread into Lead-In and Lead-Out : NoFill up missing offset samples with silence : YesDelete leading and trailing silent blocks : NoNull samples used in CRC calculations : YesUsed interface : Native Win32 interface for Win NT & 2000
Used output format : Internal WAV RoutinesSample format : 44.100 Hz; 16 Bit; Stereo
TOC of the extracted CD
Track | Start | Length | Start sector | End sector --------------------------------------------------------- 1 | 0:00.00 | 6:46.67 | 0 | 30516 2 | 6:46.67 | 4:07.63 | 30517 | 49104 3 | 10:54.55 | 5:12.10 | 49105 | 72514 4 | 16:06.65 | 5:31.60 | 72515 | 97399 5 | 21:38.50 | 8:39.05 | 97400 | 136329 6 | 30:17.55 | 4:17.00 | 136330 | 155604 7 | 34:34.55 | 7:05.32 | 155605 | 187511 8 | 41:40.12 | 3:42.05 | 187512 | 204166
Range status and errors
Selected range
Filename F:\Alexharvey\Argent - In Deep.wav
Peak level 100.0 % Extraction speed 2.4 X Range quality 100.0 % Test CRC 80671A30 Copy CRC 80671A30 Copy OK
No errors occurred
AccurateRip summary
Track 1 accurately ripped (confidence 3) [5D595FFE] (AR v2)Track 2 accurately ripped (confidence 3) [7265255E] (AR v2)Track 3 accurately ripped (confidence 3) [2E6E135B] (AR v2)Track 4 accurately ripped (confidence 3) [49E4EA91] (AR v2)Track 5 accurately ripped (confidence 3) [02B95877] (AR v2)Track 6 accurately ripped (confidence 3) [246D7EE2] (AR v2)Track 7 accurately ripped (confidence 3) [680FB1D0] (AR v2)Track 8 accurately ripped (confidence 3) [A12F2CB6] (AR v2)
All tracks accurately ripped
End of status report
---- CUETools DB Plugin V2.1.6
[CTDB TOCID: Na4t1ftW2lFCd2qgiIdrXDshx.M-] foundSubmit result: Na4t1ftW2lFCd2qgiIdrXDshx.M- has been confirmedTrack | CTDB Status 1 | (56/56) Accurately ripped 2 | (55/56) Accurately ripped 3 | (56/56) Accurately ripped 4 | (56/56) Accurately ripped 5 | (56/56) Accurately ripped 6 | (56/56) Accurately ripped 7 | (56/56) Accurately ripped 8 | (56/56) Accurately ripped
==== Log checksum 2AF9936881FECC4BE55BF25F344364C66816E302BD612757A98D2DDDE5422771 ====

Содержание индексной карты (.CUE)

REM GENRE "Art Rock"REM DATE 1973REM DISCID 650AA208REM COMMENT "ExactAudioCopy v1.3"PERFORMER "Argent"TITLE "In Deep"REM COMPOSER ""FILE "Argent - In Deep.wav" WAVE TRACK 01 AUDIO TITLE "God Gave Rock & Roll to You" PERFORMER "Argent" REM COMPOSER "" INDEX 01 00:00:00 TRACK 02 AUDIO TITLE "It's Only Money Part I" PERFORMER "Argent" REM COMPOSER "" INDEX 00 06:43:40 INDEX 01 06:46:67 TRACK 03 AUDIO TITLE "It's Only Money Part II" PERFORMER "Argent" REM COMPOSER "" INDEX 00 10:50:60 INDEX 01 10:54:55 TRACK 04 AUDIO TITLE "Loosing Hold" PERFORMER "Argent" REM COMPOSER "" INDEX 00 16:04:07 INDEX 01 16:06:65 TRACK 05 AUDIO TITLE "Be Glad" PERFORMER "Argent" REM COMPOSER "" INDEX 00 21:37:22 INDEX 01 21:38:50 TRACK 06 AUDIO TITLE "Christmas For The Free" PERFORMER "Argent" REM COMPOSER "" INDEX 01 30:17:55 TRACK 07 AUDIO TITLE "Candles On The River" PERFORMER "Argent" REM COMPOSER "" INDEX 00 34:33:25 INDEX 01 34:34:55 TRACK 08 AUDIO TITLE "Rosie" PERFORMER "Argent" REM COMPOSER "" INDEX 00 41:35:45 INDEX 01 41:40:12

Лог проверки качества

-----------------------
DON'T MODIFY THIS FILE
-----------------------
PERFORMER: auCDtect Task Manager, ver. 1.5.1RC4 build 1.5.1.5Copyright (c) 2008-2010 y-soft. All rights reservedhttp://y-soft.org
ANALYZER: auCDtect: CD records authenticity detector, version 0.8.2Copyright (c) 2004 Oleg Berngardt. All rights reserved.Copyright (c) 2004 Alexander Djourik. All rights reserved.
FILE: Argent - In Deep.flac Size: 269260954 Hash: 5D7D6A593CD16577B4F2ABEA1192C18F Accuracy: -m0 Conclusion: CDDA 100% Signature: E4F2692B73F1C36E3117DBA4634AF98ADEF64A37

CUETools log

[CUETools log; Date: 24.01.2019 21:55:40; Version: 2.1.6][CTDB TOCID: Na4t1ftW2lFCd2qgiIdrXDshx.M-] found.Track | CTDB Status 1 | (57/57) Accurately ripped 2 | (56/57) Accurately ripped 3 | (57/57) Accurately ripped 4 | (57/57) Accurately ripped 5 | (57/57) Accurately ripped 6 | (57/57) Accurately ripped 7 | (57/57) Accurately ripped 8 | (57/57) Accurately ripped[AccurateRip ID: 000e3d1f-005f10d0-650aa208] found.Track [ CRC | V2 ] Status 01 [8ccf25a2|5d595ffe] (00+03/49) Accurately ripped 02 [595a0892|7265255e] (00+03/47) Accurately ripped 03 [05fa5867|2e6e135b] (00+03/48) Accurately ripped 04 [f860a002|49e4ea91] (00+03/48) Accurately ripped 05 [39533083|02b95877] (00+03/48) Accurately ripped 06 [9eec126d|246d7ee2] (00+03/50) Accurately ripped 07 [8a49ea4a|680fb1d0] (00+03/50) Accurately ripped 08 [3dcd555c|a12f2cb6] (00+03/49) Accurately rippedOffsetted by -634: 01 [b1f2d3e2] (10/49) Accurately ripped 02 [5e7bed44] (09/47) Accurately ripped 03 [d5d1aefd] (09/48) Accurately ripped 04 [5809ffee] (09/48) Accurately ripped 05 [e2a359fa] (09/48) Accurately ripped 06 [6e8162a8] (10/50) Accurately ripped 07 [10ba60b4] (10/50) Accurately ripped 08 [0d6000ca] (09/49) Accurately rippedOffsetted by -6: 01 [82a98762] (00/49) No match (V2 was not tested) 02 [2b5e6460] (00/47) No match (V2 was not tested) 03 [29dce351] (00/48) No match (V2 was not tested) 04 [281f3316] (00/48) No match (V2 was not tested) 05 [49ccccb7] (00/48) No match (V2 was not tested) 06 [676d603f] (00/50) No match (V2 was not tested) 07 [e464d260] (00/50) No match (V2 was not tested) 08 [fd8bb16e] (00/49) No match (V2 was not tested)
Track Peak [ CRC32 ] [W/O NULL] [ LOG ] -- 100,0 [80671A30] [AD63EF2C] CRC32 01 86,4 [EF5F7AAB] [A9B68F87] 02 83,5 [F525CAF6] [9706DBB2] 03 100,0 [3D553DBE] [BBBC1B39] 04 100,0 [4B5FE366] [E30AFC7D] 05 88,0 [BF7B1482] [1251545B] 06 69,4 [C43F59F5] [FECA8F05] 07 100,0 [27666452] [D94B0E3B] 08 85,1 [75174CE6] [90B6DBC7]

Замер динамического диапазона

foobar2000 1.4.1 / Dynamic Range Meter 1.1.1log date: 2019-01-24 21:52:12
--------------------------------------------------------------------------------Analyzed: Argent / In Deep--------------------------------------------------------------------------------
DR Peak RMS Duration Track--------------------------------------------------------------------------------DR11 -1.27 dB -15.89 dB 6:47 01-God Gave Rock & Roll to YouDR11 -1.56 dB -14.91 dB 4:08 02-It's Only Money Part IDR12 0.00 dB -16.00 dB 5:12 03-It's Only Money Part IIDR11 0.00 dB -14.22 dB 5:32 04-Loosing HoldDR12 -1.11 dB -17.24 dB 8:39 05-Be GladDR12 -3.17 dB -19.32 dB 4:17 06-Christmas For The FreeDR14 0.00 dB -16.87 dB 7:05 07-Candles On The RiverDR12 -1.40 dB -16.18 dB 3:42 08-Rosie--------------------------------------------------------------------------------
Number of tracks: 8Official DR value: DR12
Samplerate: 44100 HzChannels: 2Bits per sample: 16Bitrate: 791 kbpsCodec: FLAC================================================================================

1975 - Circus (Talking Elephant TECD279 EU 2015) 00:36:38

01. Circus
02. Highwire
03. Clown
04. Trapeze (Jim Rodford)
05. Shine On Sunshine
06. The Ring
07. The Jester
All songs composed by Rod Argent except where indicated.
Rod Argent - Fender Rhodes, Keyboards, Mellotron, Moog Synthesizer, Hammond organ, Piano, Vocals
John Grimaldi - Guitar, cover art
Robert Henrit - Drums, Percussion
Jim Rodford - Bass, Vocals
John Verity - Guitar, Vocals

Лог создания рипа

Exact Audio Copy V1.1 from 23. June 2015
EAC extraction logfile from 24. January 2016, 18:51
Argent / Circus
Used drive : TSSTcorpCDDVDW SH-224DB Adapter: 1 ID: 0
Read mode : SecureUtilize accurate stream : YesDefeat audio cache : YesMake use of C2 pointers : No
Read offset correction : 6Overread into Lead-In and Lead-Out : NoFill up missing offset samples with silence : YesDelete leading and trailing silent blocks : NoNull samples used in CRC calculations : YesUsed interface : Native Win32 interface for Win NT & 2000
Used output format : User Defined EncoderSelected bitrate : 1024 kBit/sQuality : HighAdd ID3 tag : NoCommand line compressor : C:\Program Files (x86)\Exact Audio Copy\win64\flac.exeAdditional command line options : -V -8 -T "Date=%year%" -T "Genre=%genre%" %source%
TOC of the extracted CD
Track | Start | Length | Start sector | End sector --------------------------------------------------------- 1 | 0:00.00 | 3:49.66 | 0 | 17240 2 | 3:49.66 | 9:04.22 | 17241 | 58062 3 | 12:54.13 | 5:51.15 | 58063 | 84402 4 | 18:45.28 | 8:49.11 | 84403 | 124088 5 | 27:34.39 | 4:06.13 | 124089 | 142551 6 | 31:40.52 | 1:17.35 | 142552 | 148361 7 | 32:58.12 | 3:40.18 | 148362 | 164879
Range status and errors
Selected range
Filename C:\Sket4er\Argent - Circus (1975) 2015\Argent - Circus.wav
Peak level 98.9 % Extraction speed 2.7 X Range quality 100.0 % Test CRC 4796C7CF Copy CRC 4796C7CF Copy OK
No errors occurred
AccurateRip summary
Track 1 not present in databaseTrack 2 not present in databaseTrack 3 not present in databaseTrack 4 not present in databaseTrack 5 not present in databaseTrack 6 not present in databaseTrack 7 not present in database
None of the tracks are present in the AccurateRip database
End of status report
---- CUETools DB Plugin V2.1.6
[CTDB TOCID: DBhRIjsidSMYQ8O4_BEBCoBjTPU-] disk not present in databaseSubmit result: DBhRIjsidSMYQ8O4_BEBCoBjTPU- has been uploaded
==== Log checksum 2F93656A0A0809A383DE623D2C24626E739F14AFA5BD62D88AC7DE7EF5007BD7 ====

Содержание индексной карты (.CUE)

REM GENRE "Progressive Rock"REM DATE 1975REM DISCID 57089607REM COMMENT "ExactAudioCopy v1.1"PERFORMER "Argent"TITLE "Circus"FILE "Argent - Circus.flac" WAVE TRACK 01 AUDIO TITLE "Circus" PERFORMER "Argent" INDEX 01 00:00:00 TRACK 02 AUDIO TITLE "Highwire" PERFORMER "Argent" INDEX 01 03:49:66 TRACK 03 AUDIO TITLE "Clown" PERFORMER "Argent" INDEX 01 12:54:13 TRACK 04 AUDIO TITLE "Trapeze" PERFORMER "Argent" INDEX 01 18:45:28 TRACK 05 AUDIO TITLE "Shine On Sunshine" PERFORMER "Argent" INDEX 01 27:34:39 TRACK 06 AUDIO TITLE "The Ring" PERFORMER "Argent" INDEX 01 31:40:52 TRACK 07 AUDIO TITLE "The Jester" PERFORMER "Argent" INDEX 01 32:58:12

Лог проверки качества

-----------------------
DON'T MODIFY THIS FILE
-----------------------
PERFORMER: auCDtect Task Manager, ver. 1.5.1RC4 build 1.5.1.5Copyright (c) 2008-2010 y-soft. All rights reservedhttp://y-soft.org
ANALYZER: auCDtect: CD records authenticity detector, version 0.8.2Copyright (c) 2004 Oleg Berngardt. All rights reserved.Copyright (c) 2004 Alexander Djourik. All rights reserved.
FILE: Argent - Circus.flac Size: 236701204 Hash: DF55599E9A9022A578F889C5A5D7FFAD Accuracy: -m0 Conclusion: CDDA 100% Signature: 6E4CA142400BD7AD731732091C02F5FBAD6FFC7E

CUETools log

[CUETools log; Date: 24.01.2016 21:58:19; Version: 2.1.4][CTDB TOCID: DBhRIjsidSMYQ8O4_BEBCoBjTPU-] found.Track | CTDB Status 1 | (1/1) Accurately ripped 2 | (1/1) Accurately ripped 3 | (1/1) Accurately ripped 4 | (1/1) Accurately ripped 5 | (1/1) Accurately ripped 6 | (1/1) Accurately ripped 7 | (1/1) Accurately ripped[AccurateRip ID: 000b4906-0042d3df-57089607] disk not present in database.
Track Peak [ CRC32 ] [W/O NULL] [ LOG ] -- 98,9 [4796C7CF] [0C76A9DA] CRC32 01 97,9 [56793A58] [37A54540] 02 97,9 [7AAC60F6] [1FAD04CE] 03 97,9 [DF7F4DC1] [261129B0] 04 97,9 [D30A2683] [AB993C36] 05 98,9 [DEFABA51] [4CE9F46D] 06 75,7 [44DC524A] [8E4A0A95] 07 97,9 [2FBB17E4] [A4C3A53E]

Замер динамического диапазона

foobar2000 1.3.9 / Замер динамического диапазона (DR) 1.1.1Дата отчёта: 2016-01-24 21:47:14
--------------------------------------------------------------------------------Анализ: Argent / Circus--------------------------------------------------------------------------------
DR Пики RMS Продолжительность трека--------------------------------------------------------------------------------DR9 -0.18 дБ -10.67 дБ 3:50 1-CircusDR9 -0.18 дБ -11.33 дБ 9:04 2-HighwireDR9 -0.18 дБ -12.11 дБ 5:51 3-ClownDR8 -0.18 дБ -11.14 дБ 8:49 4-TrapezeDR8 -0.09 дБ -11.35 дБ 4:06 5-Shine On SunshineDR13 -2.41 дБ -19.23 дБ 1:17 6-The RingDR9 -0.18 дБ -11.02 дБ 3:40 7-The Jester--------------------------------------------------------------------------------
Количество треков: 7Реальные значения DR: DR9
Частота: 44100 ГцКаналов: 2Разрядность: 16Битрейт: 861 кбит/сКодек: FLAC================================================================================
Доп. информация

О группе

Когда сингл "Time Of The Season" возглавил американские чарты, а его тираж перевалил за миллион, группа "Zombies", записавшая пластинку, уже давно была распущена. И хотя за ее воссоединение промоутеры начали предлагать сотни тысяч долларов, один из "зомби"-лидеров, клавишник Род Арджент (р. 14 июня 1945) отказался от подобных ангажементов и собрал проект, работавший в более прогрессивном направлении. В состав группы, скромно озаглавленной "Argent", также вошли кузен Рода, басист Джим Родфорд (p. 7 июля 1945) и бывших участника "Unit 4+2" и "The Roulettes", барабанщик Боб Хенрит (p. 2 мая 1946) и гитарист Расс Баллард (p. 31 октября 1947). Последний из них (наряду с Родом) также оказался главным поставщиком материала для первых альбомов ансамбля, а за львиную долю текстов отвечал экс-басист "Zombies" Крис Уайт.
Заключив европейский контракт с "CBS Records" и американский с "Epic Records", в 1970 году "Argent" выпустили одноименный лонгплей. Альбом, большей частью являвшийся продолжением творчества "Zombies", стал лишь робкой попыткой заглянуть на новые территории и не содержал ярких номеров. Впрочем, кое-какие исключения все же были, и песня "Liar" чуть позже превратилась в хит, но не в оригинальном исполнении, а в перепевке "Three Dog Night".
Летом 1970-го этот номер пробил горячую десятку "Billboard" и тем самым помог команде поприсутствовать на престижных площадках Нью-Йорка и Лос-Анжелеса. Альбом "Ring Of Hands", поступивший в продажу 1971-го, получился куда более прогрессивным, чем его прямолинейный старший собрат, что достигалось в основном за счет изысканных клавишных пассажей Рода. И хотя критики восприняли работу с энтузиазмом, из-за отсутствия потенциальных хитов публика отнеслась к ней прохладцей. Добиться серьезного успеха "Argent" удалось лишь с третьей попытки, когда вышел их бестселлер "All Together Now". Отбросив раннюю эклектику, команда утяжелила саунд и сделала его более роковым. Лучшими номерами были признаны "Tragedy", "He's A Dynamo" и, конечно же, открывашка "Hold Your Head Up", которая даже в урезанном сингловом варианте (без фирменного соло Арджента) стала трансатлантическим хитом.
Наибольшая же прогрессивность альбома оказалась сосредоточена в закрывающем 13-минутном эпике "Pure Love", где Род насолировался вволю. Но если "All Together Now" побывал в британской двадцатке, то диск "In Deep" очутился уже на 49-м месте национального списка. Впрочем, такое положение дел было удивительно, поскольку "Argent", продолжая играть хэви-прог, заодно сотворили один из самых известных рок-гимнов "God Gave Rock'N'Roll To You".
Песня эта вошла в английский Топ 20, ее долго гоняли в американском эфире, а в 90-х ей дали второе рождение "Kiss". На альбоме "Nexus" музыкальные структуры стали гораздо более сложными, а особенно это касалось композиций, принадлежавших Ардженту. Балларда же, тяготевшего к более мелодичным вещам, излишнее погружение в прог не вдохновляло, и после выхода диска он ушел работать соло. Восполнить потерю удалось лишь двумя людьми, Джоном Гримальди (p. 25 мая 1955) и Джоном Верити (р. 2 мая 1944), однако Род был настолько рад обновленному составу, что даже отказался занять место Рика Уэйкмана в "Yes". На самом деле ситуация была не такой радужной, как предполагал Арджент, ведь с отставкой Балларда команда лишилась не только одаренного композитора, но и хорошего вокалиста.
Повинуясь воле своего лидера, в 1975 году "Argent" выпустили пару джазово-ориентированных пластинок, но ни "Circus", ни "Counterpoints" не были предназначены для широкой публики и потому коммерческого успеха не имели. Кончилось все закономерным распадом, после чего Род сессионил, а также пробовал записывать сольники, ставить мюзиклы и заниматься продюсированием других артистов. Верити, Родфорд и Хенрит выпустили пару пластинок под маркой "Phoenix", а позже Джон сколотил собственный бэнд, а Джим обосновался в "Kinks".
http://rockfaces.ru/a/argent.htm
http://www.allmusic.com/artist/argent-mn0000593930/biography
[url=http://en.wikipedia.org/wiki/Argent_(band)]http://en.wikipedia.org/wiki/Argent_(band)[/url]
http://www.rodargent.com
P.S. Желающие принять участите в проекте объединения, прошу писать в ЛС


[geo-torrent.biz]_t_5719930.torrent
Torrent: Registered ·  [ 2019-04-17 19:09 ] ·  dec940c7214db354c5ec7f9af80578f83121b7ab

30 KB

Status: checked
Completed: 0 times
Size: 1.99 GB
Rating: 
(Votes: 0)
Say thanks: 0  Thanks
Похожие темы
[Profile]    [PM]
Display posts from previous:    
Reply to topic

The time now is: Today 07:49

All times are GMT + 7 Hours



You cannot post new topics in this forum
You cannot reply to topics in this forum
You cannot edit your posts in this forum
You cannot delete your posts in this forum
You cannot vote in polls in this forum
You cannot attach files in this forum
You can download files in this forum